BitTorrentTracker PerecTracker.org
BitTorrentTracker PerecTracker.org
    
Регистрация  ·  Вход
 
 · 
Забыли пароль?

  • (Rock) VA - Тёплый Аналоговый Компакт (приложение к журналу "Stereo&Video" №227/01.2014) - 2014, FLAC (tracks+.cue), lossless

    Ответить на тему
     
    Автор Сообщение

    Columb

    Создавать темы 02-Июн-2014 08:40

           

    [Цитировать]

    Тёплый Аналоговый Компакт (приложение к журналу "Stereo&Video" №227/01.2014)
    Жанр: Rock
    Носитель: CD
    Страна-производитель диска: Россия
    Год издания: 2014
    Издатель (лейбл): Stereo&Video
    Номер по каталогу: SVCD-181 01/2014
    Аудиокодек: FLAC (*.flac)
    Тип рипа: tracks+.cue
    Битрейт аудио: lossless
    Продолжительность: 41:02
    Источник (релизер): собственный диск
    Наличие сканов в содержимом раздачи: нет
    Треклист:
    01 Автограф - О, мой мальчик
    02 Круиз - Железный рок
    03 Чернавский/Матецкий - Робот
    04 «Альфа» Сергея Сарычева - Театр
    05 Ноль - Ты — тормоз
    06 Егор и Опи...невшие - Жека уже в Гамбурге
    07 Ляпис Трубецкой - Рыбка золотая (Caribace Remix)
    08 Профессор Лебединский - Если не любовь
    09 Юрий Чернавский - Доктор Альберт Карлович
    10 Валерий Сюткин - Целуйтесь медленно

    Лог создания рипа

    Exact Audio Copy V1.0 beta 3 from 29. August 2011
    EAC extraction logfile from 31. May 2014, 10:58
    Various Artists / Тёплый аналоговый компакт
    Used drive : SlimtypeDVD A DS8A4S Adapter: 1 ID: 0
    Read mode : SecureUtilize accurate stream : YesDefeat audio cache : YesMake use of C2 pointers : No
    Read offset correction : 6Overread into Lead-In and Lead-Out : NoFill up missing offset samples with silence : YesDelete leading and trailing silent blocks : NoNull samples used in CRC calculations : YesUsed interface : Native Win32 interface for Win NT & 2000Gap handling : Appended to previous track
    Used output format : User Defined EncoderSelected bitrate : 128 kBit/sQuality : HighAdd ID3 tag : NoCommand line compressor : C:\Program Files\Exact Audio Copy\Flac\flac.exeAdditional command line options : -V -8 -T "Date=%year%" -T "Genre=%genre%" %source%
    TOC of the extracted CD
    Track | Start | Length | Start sector | End sector --------------------------------------------------------- 1 | 0:00.00 | 4:14.00 | 0 | 19049 2 | 4:14.00 | 3:39.01 | 19050 | 35475 3 | 7:53.01 | 4:32.15 | 35476 | 55890 4 | 12:25.16 | 5:27.09 | 55891 | 80424 5 | 17:52.25 | 3:26.50 | 80425 | 95924 6 | 21:19.00 | 1:40.58 | 95925 | 103482 7 | 22:59.58 | 4:14.21 | 103483 | 122553 8 | 27:14.04 | 5:02.73 | 122554 | 145276 9 | 32:17.02 | 5:29.00 | 145277 | 169951 10 | 37:46.02 | 2:51.06 | 169952 | 182782
    Track 1
    Filename G:\Сборники\Тёплый аналоговый компакт\01 О, мой мальчик.wav
    Pre-gap length 0:00:02.00
    Peak level 75.8 % Extraction speed 1.8 X Track quality 100.0 % Test CRC D08923A9 Copy CRC D08923A9 Copy OK
    Track 2
    Filename G:\Сборники\Тёплый аналоговый компакт\02 Железный рок.wav
    Pre-gap length 0:00:03.00
    Peak level 98.8 % Extraction speed 2.0 X Track quality 100.0 % Test CRC 1CDA9D27 Copy CRC 1CDA9D27 Copy OK
    Track 3
    Filename G:\Сборники\Тёплый аналоговый компакт\03 Робот.wav
    Pre-gap length 0:00:03.00
    Peak level 98.8 % Extraction speed 2.2 X Track quality 100.0 % Test CRC 2AECF623 Copy CRC 2AECF623 Copy OK
    Track 4
    Filename G:\Сборники\Тёплый аналоговый компакт\04 Театр.wav
    Pre-gap length 0:00:03.00
    Peak level 97.7 % Extraction speed 2.5 X Track quality 100.0 % Test CRC F7E1E153 Copy CRC F7E1E153 Copy OK
    Track 5
    Filename G:\Сборники\Тёплый аналоговый компакт\05 Ты - тормоз.wav
    Pre-gap length 0:00:03.00
    Peak level 88.5 % Extraction speed 2.5 X Track quality 100.0 % Test CRC 7A886F48 Copy CRC 7A886F48 Copy OK
    Track 6
    Filename G:\Сборники\Тёплый аналоговый компакт\06 Жека уже в Гамбурге.wav
    Pre-gap length 0:00:04.00
    Peak level 53.8 % Extraction speed 2.2 X Track quality 100.0 % Test CRC 6EE17EA2 Copy CRC 6EE17EA2 Copy OK
    Track 7
    Filename G:\Сборники\Тёплый аналоговый компакт\07 Рыбка золотая.wav
    Pre-gap length 0:00:03.00
    Peak level 98.8 % Extraction speed 2.4 X Track quality 99.9 % Test CRC B970D1C7 Copy CRC B970D1C7 Copy OK
    Track 8
    Filename G:\Сборники\Тёплый аналоговый компакт\08 Если не любовь.wav
    Pre-gap length 0:00:03.00
    Peak level 75.8 % Extraction speed 3.0 X Track quality 100.0 % Test CRC C087D4B9 Copy CRC C087D4B9 Copy OK
    Track 9
    Filename G:\Сборники\Тёплый аналоговый компакт\09 Доктор Альберт Карлович.wav
    Pre-gap length 0:00:03.00
    Peak level 77.6 % Extraction speed 2.9 X Track quality 99.9 % Test CRC 8065F618 Copy CRC 8065F618 Copy OK
    Track 10
    Filename G:\Сборники\Тёплый аналоговый компакт\10 Целуйтесь медленно.wav
    Pre-gap length 0:00:03.00
    Peak level 56.8 % Extraction speed 3.0 X Track quality 100.0 % Test CRC 92952672 Copy CRC 92952672 Copy OK
    No errors occurred
    End of status report
    ==== Log checksum 4C368E11F4B906E848CF45B823EAC43FBA73A6DED71C864BCFE9A9EDB0B4CE9E ====

    Содержание индексной карты (.CUE)

    REM GENRE RockREM DATE 2014REM DISCID 8E09850AREM COMMENT "ExactAudioCopy v1.0b3"PERFORMER "Various Artists"TITLE "Тёплый аналоговый компакт"FILE "01 О, мой мальчик.wav" WAVE TRACK 01 AUDIO TITLE "О, мой мальчик" PERFORMER "Автограф" INDEX 01 00:00:00 TRACK 02 AUDIO TITLE "Железный рок" PERFORMER "Круиз" INDEX 00 04:11:00FILE "02 Железный рок.wav" WAVE INDEX 01 00:00:00 TRACK 03 AUDIO TITLE "Робот" PERFORMER "Чернавский/Матецкий" INDEX 00 03:36:01FILE "03 Робот.wav" WAVE INDEX 01 00:00:00 TRACK 04 AUDIO TITLE "Театр" PERFORMER "Альфа" INDEX 00 04:29:15FILE "04 Театр.wav" WAVE INDEX 01 00:00:00 TRACK 05 AUDIO TITLE "Ты - тормоз" PERFORMER "Ноль" INDEX 00 05:24:09FILE "05 Ты - тормоз.wav" WAVE INDEX 01 00:00:00 TRACK 06 AUDIO TITLE "Жека уже в Гамбурге" PERFORMER "Егор и Опизденевшие" INDEX 00 03:22:50FILE "06 Жека уже в Гамбурге.wav" WAVE INDEX 01 00:00:00 TRACK 07 AUDIO TITLE "Рыбка золотая" PERFORMER "Ляпис Трубецкой" INDEX 00 01:37:58FILE "07 Рыбка золотая.wav" WAVE INDEX 01 00:00:00 TRACK 08 AUDIO TITLE "Если не любовь" PERFORMER "Профессор Лебединский" INDEX 00 04:11:21FILE "08 Если не любовь.wav" WAVE INDEX 01 00:00:00 TRACK 09 AUDIO TITLE "Доктор Альберт Карлович" PERFORMER "Юрий Чернавский" INDEX 00 04:59:73FILE "09 Доктор Альберт Карлович.wav" WAVE INDEX 01 00:00:00 TRACK 10 AUDIO TITLE "Целуйтесь медленно" PERFORMER "Валерий Сюткин" INDEX 00 05:26:00FILE "10 Целуйтесь медленно.wav" WAVE INDEX 01 00:00:00

    Об альбоме (сборнике)

    Музыкальное издательство «Мирумир» занимается выпуском виниловых пластинок. В конце 2013 года оно отпраздновало небольшой юбилей — за 2 года каталог российских артистов составил 100 наименований. Юбилейной 100-й пластинкой стал последний студийный альбом Земфиры «Жить в твоей голове». В каталоге «Мирумир» можно найти Аллу Пугачеву, Владимира Кузьмина, Вячеслава Бутусова, группы «Ария», «Чайф», «Мумий Тролль». Большая часть аудиоматериала готовится к выпуску с оригинальных мастер-лент, и именно поэтому данный сборник получил ироничное название «Теплый аналоговый компакт». В сборник вошли песни с 10 из 100 пластинок, то есть ровно одна десятая каталога «Мирумир».
    Скачать .torrent

    Скачать торрент-файл бесплатно и на максимальной скорости!

    Как скачивать? · Что такое торрент? · Рейтинг и ограничения

    !ВНИМАНИЕ!
    Сайт не распространяет и не хранит электронные версии произведений, а занимается лишь лишь предоставлением доступа к создаваемому пользователями каталогу ссылок на торрент-файлы, которые содержат только списки хеш-сумм, убедительная просьба с жалобами обращаться напрямую к пользователю. Файлы для обмена на трекере предоставлены пользователями сайта, и администрация не несёт ответственности за их содержание. Просьба не заливать файлы, защищенные авторскими правами, а также файлы нелегального содержания!

    [Профиль] [ЛС]
    Показать сообщения:    
    Ответить на тему

    Текущее время: Сегодня, в 06:13

    Часовой пояс: GMT + 2



    Вы не можете начинать темы
    Вы не можете отвечать на сообщения
    Вы не можете редактировать свои сообщения
    Вы не можете удалять свои сообщения
    Вы не можете голосовать в опросах
    Вы не можете прикреплять файлы к сообщениям
    Вы не можете скачивать файлы