BitTorrentTracker PerecTracker.org
BitTorrentTracker PerecTracker.org
    
Регистрация  ·  Вход
 
 · 
Забыли пароль?

  • (Rock) [CD] Земфира - Прости Меня Моя Любовь (Limited Edition) - 2000, FLAC (image+.cue), lossless

    Ответить на тему
     
    Автор Сообщение

    Columb

    Создавать темы 02-Июн-2014 08:31

           

    [Цитировать]

    Земфира / Прости Меня Моя Любовь (Limited Edition)
    Жанр: Rock
    Носитель: CD
    Страна-производитель диска: Russia
    Год издания: 2000
    Издатель (лейбл): Real Records
    Номер по каталогу: RR-36-CD
    Страна: Россия
    Аудиокодек: FLAC (*.flac)
    Тип рипа: image+.cue
    Битрейт аудио: lossless
    Продолжительность: 0:46:23
    Наличие сканов в содержимом раздачи: нет
    Треклист:
    01. Шкалят Датчики (3:38)
    02. Zero (2:47)
    03. Созрела (3:33)
    04. Хочешь? (3:18)
    05. Рассветы (3:52)
    06. Город (3:14)
    07. Ненавижу (3:42)
    08. Сигареты (4:29)
    09. Доказано (3:19)
    10. П.М.М.Л. (3:37)
    11. Искала (3:34)
    12. Не Отпускай (4:07)
    13. Лондон (3:12)

    Лог создания рипа

    Exact Audio Copy V1.0 beta 3 from 29. August 2011
    Отчёт EAC об извлечении, выполненном 20. мая 2014, 13:23
    Zемфира / Прости Меня Моя Любовь
    Дисковод: PLEXTOR DVDR PX-755A Adapter: 2 ID: 0
    Режим чтения : ДостоверностьИспользование точного потока : ДаОтключение кэша аудио : ДаИспользование указателей C2 : Нет
    Коррекция смещения при чтении : 30Способность читать области Lead-in и Lead-out : НетЗаполнение пропущенных сэмплов тишиной : ДаУдаление блоков с тишиной в начале и конце : НетПри вычислениях CRC использовались нулевые сэмплы : ДаИнтерфейс : Встроенный Win32-интерфейс для Win NT/2000
    Выходной формат : Пользовательский кодировщикВыбранный битрейт : 1024 kBit/sКачество : ВысокийДобавление ID3-тега : НетУтилита сжатия : C:\Program Files (x86)\Exact Audio Copy\Flac\flac.exeДополнительные параметры : -V -8 -T "Genre=%genre%" -T "Artist=%artist%" -T "Title=%title%" -T "Album=%albumtitle%" -T "Date=%year%" -T "Tracknumber=%tracknr%" -T "Comment=%comment%" %source%
    TOC извлечённого CD
    Трек | Старт | Длительность | Начальный сектор | Конечный сектор --------------------------------------------------------------------- 1 | 0:00.00 | 3:38.00 | 0 | 16349 2 | 3:38.00 | 2:46.74 | 16350 | 28873 3 | 6:24.74 | 3:33.30 | 28874 | 44878 4 | 9:58.29 | 3:18.00 | 44879 | 59728 5 | 13:16.29 | 3:52.00 | 59729 | 77128 6 | 17:08.29 | 3:13.60 | 77129 | 91663 7 | 20:22.14 | 3:42.24 | 91664 | 108337 8 | 24:04.38 | 4:29.29 | 108338 | 128541 9 | 28:33.67 | 3:19.25 | 128542 | 143491 10 | 31:53.17 | 3:37.13 | 143492 | 159779 11 | 35:30.30 | 3:34.00 | 159780 | 175829 12 | 39:04.30 | 4:06.74 | 175830 | 194353 13 | 43:11.29 | 3:12.02 | 194354 | 208755
    Характеристики диапазона извлечения и сообщения об ошибках
    Выбранный диапазон
    Имя файла U:\MUZzON\CD\FLAC\Zемфира\Прости Меня Моя Любовь\Zемфира - Прости Меня Моя Любовь.wav
    Пиковый уровень 97.7 % Скорость извлечения 7.6 X Качество диапазона 100.0 % CRC теста 6B5CA813 CRC копии 6B5CA813 Копирование... OK
    Ошибок не произошло
    AccurateRip: сводка
    Трек 1 : извлечено точно (доверие 5) [C8C11479] (AR v2)Трек 2 : извлечено точно (доверие 5) [FDD52F9F] (AR v2)Трек 3 : извлечено точно (доверие 5) [C5BD7480] (AR v2)Трек 4 : извлечено точно (доверие 5) [41EB68B6] (AR v2)Трек 5 : извлечено точно (доверие 5) [57E49323] (AR v2)Трек 6 : извлечено точно (доверие 5) [E8877ADB] (AR v2)Трек 7 : извлечено точно (доверие 5) [24CD7D4E] (AR v2)Трек 8 : извлечено точно (доверие 5) [AE915074] (AR v2)Трек 9 : извлечено точно (доверие 5) [1EBDDF1D] (AR v2)Трек 10 : извлечено точно (доверие 5) [9508D4E0] (AR v2)Трек 11 : извлечено точно (доверие 5) [08F86F48] (AR v2)Трек 12 : извлечено точно (доверие 5) [5F6E5857] (AR v2)Трек 13 : извлечено точно (доверие 5) [30638577] (AR v2)
    Все треки извлечены точно
    Конец отчёта
    ---- CUETools DB Plugin V2.1.4
    [CTDB TOCID: 0lDwwpMWby9pkwwa_59xrKH_4WE-] foundSubmit result: already submittedTrack | CTDB Status 1 | (5/5) Accurately ripped 2 | (5/5) Accurately ripped 3 | (5/5) Accurately ripped 4 | (5/5) Accurately ripped 5 | (5/5) Accurately ripped 6 | (5/5) Accurately ripped 7 | (5/5) Accurately ripped 8 | (5/5) Accurately ripped 9 | (5/5) Accurately ripped 10 | (5/5) Accurately ripped 11 | (5/5) Accurately ripped 12 | (5/5) Accurately ripped 13 | (5/5) Accurately ripped
    ==== Контрольная сумма отчёта E7A69300354E2D079C507ACFAAC247B42E9D4D095521B2EF064E98FF60F6A24F ====
    Скачать .torrent

    Скачать торрент-файл бесплатно и на максимальной скорости!

    Как скачивать? · Что такое торрент? · Рейтинг и ограничения

    !ВНИМАНИЕ!
    Сайт не распространяет и не хранит электронные версии произведений, а занимается лишь лишь предоставлением доступа к создаваемому пользователями каталогу ссылок на торрент-файлы, которые содержат только списки хеш-сумм, убедительная просьба с жалобами обращаться напрямую к пользователю. Файлы для обмена на трекере предоставлены пользователями сайта, и администрация не несёт ответственности за их содержание. Просьба не заливать файлы, защищенные авторскими правами, а также файлы нелегального содержания!

    [Профиль] [ЛС]
    Показать сообщения:    
    Ответить на тему

    Текущее время: Сегодня, в 14:41

    Часовой пояс: GMT + 2



    Вы не можете начинать темы
    Вы не можете отвечать на сообщения
    Вы не можете редактировать свои сообщения
    Вы не можете удалять свои сообщения
    Вы не можете голосовать в опросах
    Вы не можете прикреплять файлы к сообщениям
    Вы не можете скачивать файлы