BitTorrentTracker PerecTracker.org
BitTorrentTracker PerecTracker.org
    
Регистрация  ·  Вход
 
 · 
Забыли пароль?

  • (Rock) [CD] Калинов мост - Contra - 2013, FLAC (image+.cue), lossless

    Ответить на тему
     
    Автор Сообщение

    Columb

    Создавать темы 02-Июн-2014 08:29

           

    [Цитировать]

    Калинов мост / Contra
    Жанр: Rock
    Носитель: CD
    Страна-производитель диска: Россия
    Год издания: 2013
    Издатель (лейбл): Навигатор рекордс
    Номер по каталогу: NR 2513 CDp
    Страна: Россия
    Аудиокодек: FLAC (*.flac)
    Тип рипа: image+.cue
    Битрейт аудио: lossless
    Продолжительность: 66:12
    Наличие сканов в содержимом раздачи: да
    Треклист:
    01. Контроль (3:12)
    02. Дети полей (4:10)
    03. Ярга Лада (3:48)
    04. Станичники (4:08)
    05. Солнце умрет (10:34)
    06. Тает (4:19)
    07. Камни (6:32)
    08. Приказ №15 (5:08)
    09. Рождество (7:48)
    10. Тень (5:30)
    11. Звенья (7:06)
    12. Фитилек (3:55)

    Лог создания рипа

    Exact Audio Copy V1.0 beta 3 from 29. August 2011
    Отчёт EAC об извлечении, выполненном 30. мая 2014, 1:10
    Калинов мост / Contra
    Дисковод: PIONEER DVD-RW DVR-221L Adapter: 3 ID: 0
    Режим чтения : ДостоверностьИспользование точного потока : ДаОтключение кэша аудио : ДаИспользование указателей C2 : Нет
    Коррекция смещения при чтении : 6Способность читать области Lead-in и Lead-out : НетЗаполнение пропущенных сэмплов тишиной : ДаУдаление блоков с тишиной в начале и конце : НетПри вычислениях CRC использовались нулевые сэмплы : ДаИнтерфейс : Встроенный Win32-интерфейс для Win NT/2000
    Выходной формат : Пользовательский кодировщикВыбранный битрейт : 768 kBit/sКачество : ВысокийДобавление ID3-тега : НетУтилита сжатия : C:\Program Files (x86)\Exact Audio Copy\FLAC\FLAC.EXEДополнительные параметры : -6 -V -T "ARTIST=%artist%" -T "TITLE=%title%" -T "ALBUM=%albumtitle%" -T "DATE=%year%" -T "TRACKNUMBER=%tracknr%" -T "GENRE=%genre%" -T "COMMENT=%comment%" -T "BAND=%albuminterpret%" -T "ALBUMARTIST=%albuminterpret%" -T "COMPOSER=%composer%" %haslyrics%--tag-from-file=LYRICS="%lyricsfile%"%haslyrics% -T "DISCNUMBER=%cdnumber%" -T "TOTALDISCS=%totalcds%" -T "TOTALTRACKS=%numtracks%" %hascover%--picture="%coverfile%"%hascover% %source% -o %dest%
    TOC извлечённого CD
    Трек | Старт | Длительность | Начальный сектор | Конечный сектор --------------------------------------------------------------------- 1 | 0:00.00 | 3:12.17 | 0 | 14416 2 | 3:12.17 | 4:09.63 | 14417 | 33154 3 | 7:22.05 | 3:48.27 | 33155 | 50281 4 | 11:10.32 | 4:07.40 | 50282 | 68846 5 | 15:17.72 | 10:33.51 | 68847 | 116372 6 | 25:51.48 | 4:19.34 | 116373 | 135831 7 | 30:11.07 | 6:32.27 | 135832 | 165258 8 | 36:43.34 | 5:07.74 | 165259 | 188357 9 | 41:51.33 | 7:47.58 | 188358 | 223440 10 | 49:39.16 | 5:30.23 | 223441 | 248213 11 | 55:09.39 | 7:06.05 | 248214 | 280168 12 | 62:15.44 | 3:55.30 | 280169 | 297823
    Характеристики диапазона извлечения и сообщения об ошибках
    Выбранный диапазон
    Имя файла C:\Users\papez\Desktop\Калинов мост - Contra.wav
    Пиковый уровень 96.8 % Скорость извлечения 4.8 X Качество диапазона 100.0 % CRC теста 2616D847 CRC копии 2616D847 Копирование... OK
    Ошибок не произошло
    AccurateRip: сводка
    Трек 1 : извлечено точно (доверие 1) [30514AA8] (AR v2)Трек 2 : извлечено точно (доверие 1) [4FE763AD] (AR v2)Трек 3 : извлечено точно (доверие 1) [CDA05C4E] (AR v2)Трек 4 : извлечено точно (доверие 1) [62B6FEC2] (AR v2)Трек 5 : извлечено точно (доверие 1) [F43466A1] (AR v2)Трек 6 : извлечено точно (доверие 1) [D1856F57] (AR v2)Трек 7 : извлечено точно (доверие 1) [4312569C] (AR v2)Трек 8 : извлечено точно (доверие 1) [A905B1BE] (AR v2)Трек 9 : извлечено точно (доверие 1) [A01D20E4] (AR v2)Трек 10 : извлечено точно (доверие 1) [09D71C3A] (AR v2)Трек 11 : извлечено точно (доверие 1) [6452AA8B] (AR v2)Трек 12 : извлечено точно (доверие 1) [B8262A89] (AR v2)
    Все треки извлечены точно
    Конец отчёта

    Содержание индексной карты (.CUE)

    REM GENRE RockREM DATE 2013REM DISCID 9D0F820CREM COMMENT "ExactAudioCopy v1.0b3"PERFORMER "Калинов мост"TITLE "Contra"FILE "Калинов мост - Contra.flac" WAVE TRACK 01 AUDIO TITLE "Контроль" PERFORMER "Калинов мост" INDEX 01 00:00:00 TRACK 02 AUDIO TITLE "Дети полей" PERFORMER "Калинов мост" INDEX 01 03:12:17 TRACK 03 AUDIO TITLE "Ярга Лада" PERFORMER "Калинов мост" INDEX 01 07:22:05 TRACK 04 AUDIO TITLE "Станичники" PERFORMER "Калинов мост" INDEX 01 11:10:32 TRACK 05 AUDIO TITLE "Солнце умрет" PERFORMER "Калинов мост" INDEX 01 15:17:72 TRACK 06 AUDIO TITLE "Тает" PERFORMER "Калинов мост" INDEX 01 25:51:48 TRACK 07 AUDIO TITLE "Камни" PERFORMER "Калинов мост" INDEX 01 30:11:07 TRACK 08 AUDIO TITLE "Приказ №15" PERFORMER "Калинов мост" INDEX 01 36:43:34 TRACK 09 AUDIO TITLE "Рождество" PERFORMER "Калинов мост" INDEX 01 41:51:33 TRACK 10 AUDIO TITLE "Тень" PERFORMER "Калинов мост" INDEX 01 49:39:16 TRACK 11 AUDIO TITLE "Звенья" PERFORMER "Калинов мост" INDEX 01 55:09:39 TRACK 12 AUDIO TITLE "Фитилек" PERFORMER "Калинов мост" INDEX 01 62:15:44
    Скачать .torrent

    Скачать торрент-файл бесплатно и на максимальной скорости!

    Как скачивать? · Что такое торрент? · Рейтинг и ограничения

    !ВНИМАНИЕ!
    Сайт не распространяет и не хранит электронные версии произведений, а занимается лишь лишь предоставлением доступа к создаваемому пользователями каталогу ссылок на торрент-файлы, которые содержат только списки хеш-сумм, убедительная просьба с жалобами обращаться напрямую к пользователю. Файлы для обмена на трекере предоставлены пользователями сайта, и администрация не несёт ответственности за их содержание. Просьба не заливать файлы, защищенные авторскими правами, а также файлы нелегального содержания!

    [Профиль] [ЛС]
    Показать сообщения:    
    Ответить на тему

    Текущее время: Сегодня, в 16:45

    Часовой пояс: GMT + 2



    Вы не можете начинать темы
    Вы не можете отвечать на сообщения
    Вы не можете редактировать свои сообщения
    Вы не можете удалять свои сообщения
    Вы не можете голосовать в опросах
    Вы не можете прикреплять файлы к сообщениям
    Вы не можете скачивать файлы