BitTorrentTracker PerecTracker.org
BitTorrentTracker PerecTracker.org
    
Регистрация  ·  Вход
 
 · 
Забыли пароль?

  • (Pop, Rock, Artelnative) [CD] КЕЙН - Сам по себе, FLAC (tracks), lossless

    Ответить на тему
     
    Автор Сообщение

    Columb

    Создавать темы 01-Июн-2014 13:33

           

    [Цитировать]

    КЕЙН / Сам по себе
    Жанр: Pop, Rock, Artelnative
    Носитель: CD
    Страна-производитель диска: Россия
    Год издания: 2013
    Издатель (лейбл): Монолит
    Номер по каталогу: MT 001091-333-1
    Страна: Россия
    Аудиокодек: FLAC (*.flac)
    Тип рипа: tracks+.cue
    Битрейт аудио: lossless
    Продолжительность: 00:34:06
    Источник (релизер): Собственный Диск
    Наличие сканов в содержимом раздачи: нет
    Треклист:
    1. Мегаполис
    2. Не дети
    3. Останься со мной
    4. Всё, стоп (feat. Кэш «Слот»)
    5. Город
    6. Сам по себе
    7. Не улетай
    8. Секунда
    9. Мне без тебя
    10. Ночью и днём

    Лог создания рипа

    Exact Audio Copy V1.0 beta 3 from 29. August 2011
    EAC extraction logfile from 19. May 2014, 18:33
    КЕЙН / Сам по себе
    Used drive : HL-DT-STDVD-RAM GH40L Adapter: 0 ID: 0
    Read mode : SecureUtilize accurate stream : YesDefeat audio cache : YesMake use of C2 pointers : No
    Read offset correction : 667Overread into Lead-In and Lead-Out : NoFill up missing offset samples with silence : YesDelete leading and trailing silent blocks : NoNull samples used in CRC calculations : YesUsed interface : Native Win32 interface for Win NT & 2000Gap handling : Appended to previous track
    Used output format : User Defined EncoderSelected bitrate : 128 kBit/sQuality : HighAdd ID3 tag : NoCommand line compressor : E:\Program Files\Exact Audio Copy\Flac\flac.exeAdditional command line options : -8 -V -T "ARTIST=%artist%" -T "TITLE=%title%" -T "ALBUM=%albumtitle%" -T "DATE=%year%" -T "TRACKNUMBER=%tracknr%" -T "TOTALTRACKS=%numtracks%" -T "GENRE=%genre%" -T "ALBUMARTIST=%albumartist%" -T "ALBUM ARTIST=%albumartist%" -T "COMMENT=EAC Secure Mode, Test & Copy, AccurateRip, FLAC -8" %source%
    TOC of the extracted CD
    Track | Start | Length | Start sector | End sector --------------------------------------------------------- 1 | 0:00.00 | 3:13.37 | 0 | 14511 2 | 3:13.37 | 3:21.01 | 14512 | 29587 3 | 6:34.38 | 3:28.24 | 29588 | 45211 4 | 10:02.62 | 3:55.62 | 45212 | 62898 5 | 13:58.49 | 3:35.28 | 62899 | 79051 6 | 17:34.02 | 2:48.37 | 79052 | 91688 7 | 20:22.39 | 4:01.02 | 91689 | 109765 8 | 24:23.41 | 3:02.37 | 109766 | 123452 9 | 27:26.03 | 3:23.38 | 123453 | 138715 10 | 30:49.41 | 3:16.54 | 138716 | 153469
    Track 1
    Filename D:\µTorrent My Reliase\01 - Мегаполис.wav
    Pre-gap length 0:00:02.00
    Peak level 96.6 % Extraction speed 1.7 X Track quality 100.0 % Test CRC 74FFE15B Copy CRC 74FFE15B Track not present in AccurateRip database Copy OK
    Track 2
    Filename D:\µTorrent My Reliase\02 - Не дети.wav
    Pre-gap length 0:00:02.00
    Peak level 96.7 % Extraction speed 1.9 X Track quality 100.0 % Test CRC B195B4B8 Copy CRC B195B4B8 Track not present in AccurateRip database Copy OK
    Track 3
    Filename D:\µTorrent My Reliase\03 - Останься со мной.wav
    Pre-gap length 0:00:02.00
    Peak level 96.6 % Extraction speed 2.1 X Track quality 100.0 % Test CRC 78483411 Copy CRC 78483411 Track not present in AccurateRip database Copy OK
    Track 4
    Filename D:\µTorrent My Reliase\04 - Всё, стоп (feat. Кэш «Слот» ).wav
    Pre-gap length 0:00:02.00
    Peak level 99.9 % Extraction speed 2.3 X Track quality 100.0 % Test CRC 05A624D9 Copy CRC 05A624D9 Track not present in AccurateRip database Copy OK
    Track 5
    Filename D:\µTorrent My Reliase\05 - Город.wav
    Pre-gap length 0:00:02.00
    Peak level 96.9 % Extraction speed 2.3 X Track quality 100.0 % Test CRC 1962CC06 Copy CRC 1962CC06 Track not present in AccurateRip database Copy OK
    Track 6
    Filename D:\µTorrent My Reliase\06 - Сам по себе.wav
    Pre-gap length 0:00:02.00
    Peak level 96.9 % Extraction speed 2.4 X Track quality 100.0 % Test CRC B9BE88ED Copy CRC B9BE88ED Track not present in AccurateRip database Copy OK
    Track 7
    Filename D:\µTorrent My Reliase\07 - Не улетай.wav
    Pre-gap length 0:00:02.00
    Peak level 96.6 % Extraction speed 2.4 X Track quality 99.9 % Test CRC 4F313A76 Copy CRC 4F313A76 Track not present in AccurateRip database Copy OK
    Track 8
    Filename D:\µTorrent My Reliase\08 - Секунда.wav
    Pre-gap length 0:00:02.00
    Peak level 96.9 % Extraction speed 2.6 X Track quality 100.0 % Test CRC B89B1E8B Copy CRC B89B1E8B Track not present in AccurateRip database Copy OK
    Track 9
    Filename D:\µTorrent My Reliase\09 - Мне без тебя.wav
    Pre-gap length 0:00:02.00
    Peak level 96.8 % Extraction speed 2.5 X Track quality 99.9 % Test CRC 9457454B Copy CRC 9457454B Track not present in AccurateRip database Copy OK
    Track 10
    Filename D:\µTorrent My Reliase\10 - Ночью и днём.wav
    Pre-gap length 0:00:02.00
    Peak level 96.6 % Extraction speed 2.8 X Track quality 100.0 % Test CRC 878C8366 Copy CRC 878C8366 Track not present in AccurateRip database Copy OK
    None of the tracks are present in the AccurateRip database
    No errors occurred
    End of status report
    ---- CUETools DB Plugin V2.1.3
    [CTDB TOCID: IO8HuZrf.9o17_g5Fhg58YAJ1wA-] disk not present in database, Submit result: IO8HuZrf.9o17_g5Fhg58YAJ1wA- has been uploaded
    ==== Log checksum 2F3618390BEC7DF98D768B37B68CDEA9B94359CFF79C0538946EA48A256C2778 ====

    Содержание индексной карты (.CUE)

    REM GENRE AlternativeREM DATE 2013REM DISCID 8007FE0AREM COMMENT "ExactAudioCopy v1.0b3"PERFORMER "КЕЙН"TITLE "Сам по себе"FILE "01 - Мегаполис.wav" WAVE TRACK 01 AUDIO TITLE "Мегаполис" PERFORMER "КЕЙН" FLAGS DCP INDEX 01 00:00:00 TRACK 02 AUDIO TITLE "Не дети" PERFORMER "КЕЙН" FLAGS DCP INDEX 00 03:11:37FILE "02 - Не дети.wav" WAVE INDEX 01 00:00:00 TRACK 03 AUDIO TITLE "Останься со мной" PERFORMER "КЕЙН" FLAGS DCP INDEX 00 03:19:01FILE "03 - Останься со мной.wav" WAVE INDEX 01 00:00:00 TRACK 04 AUDIO TITLE "Всё, стоп (feat. Кэш «Слот» )" PERFORMER "КЕЙН" FLAGS DCP INDEX 00 03:26:24FILE "04 - Всё, стоп (feat. Кэш «Слот»).wav" WAVE INDEX 01 00:00:00 TRACK 05 AUDIO TITLE "Город" PERFORMER "КЕЙН" FLAGS DCP INDEX 00 03:53:62FILE "05 - Город.wav" WAVE INDEX 01 00:00:00 TRACK 06 AUDIO TITLE "Сам по себе" PERFORMER "КЕЙН" FLAGS DCP INDEX 00 03:33:28FILE "06 - Сам по себе.wav" WAVE INDEX 01 00:00:00 TRACK 07 AUDIO TITLE "Не улетай" PERFORMER "КЕЙН" FLAGS DCP INDEX 00 02:46:37FILE "07 - Не улетай.wav" WAVE INDEX 01 00:00:00 TRACK 08 AUDIO TITLE "Секунда" PERFORMER "КЕЙН" FLAGS DCP INDEX 00 03:59:02FILE "08 - Секунда.wav" WAVE INDEX 01 00:00:00 TRACK 09 AUDIO TITLE "Мне без тебя" PERFORMER "КЕЙН" FLAGS DCP INDEX 00 03:00:37FILE "09 - Мне без тебя.wav" WAVE INDEX 01 00:00:00 TRACK 10 AUDIO TITLE "Ночью и днём" PERFORMER "КЕЙН" FLAGS DCP INDEX 00 03:21:38FILE "10 - Ночью и днём.wav" WAVE INDEX 01 00:00:00

    Лог проверки качества

    Начато: четверг, 29. 05. 2014. - 22:19.42Найдено файлов: 10
    01 -===- трек 1 в приводе HL-DT-STDVD-RAM GH40L Трек успешно извлечён Заключение: этот трек - CDDA с вероятностью 100% Временный файл удалён.
    02 -===- трек 2 в приводе HL-DT-STDVD-RAM GH40L Трек успешно извлечён Заключение: этот трек - CDDA с вероятностью 100% Временный файл удалён.
    03 -===- трек 3 в приводе HL-DT-STDVD-RAM GH40L Трек успешно извлечён Заключение: этот трек - CDDA с вероятностью 100% Временный файл удалён.
    04 -===- трек 4 в приводе HL-DT-STDVD-RAM GH40L Трек успешно извлечён Заключение: этот трек - CDDA с вероятностью 95% Временный файл удалён.
    05 -===- трек 5 в приводе HL-DT-STDVD-RAM GH40L Трек успешно извлечён Заключение: этот трек - CDDA с вероятностью 100% Временный файл удалён.
    06 -===- трек 6 в приводе HL-DT-STDVD-RAM GH40L Трек успешно извлечён Заключение: этот трек - CDDA с вероятностью 100% Временный файл удалён.
    07 -===- трек 7 в приводе HL-DT-STDVD-RAM GH40L Трек успешно извлечён Заключение: этот трек - CDDA с вероятностью 100% Временный файл удалён.
    08 -===- трек 8 в приводе HL-DT-STDVD-RAM GH40L Трек успешно извлечён Заключение: этот трек - CDDA с вероятностью 100% Временный файл удалён.
    09 -===- трек 9 в приводе HL-DT-STDVD-RAM GH40L Трек успешно извлечён Заключение: этот трек - CDDA с вероятностью 100% Временный файл удалён.
    10 -===- трек 10 в приводе HL-DT-STDVD-RAM GH40L Трек успешно извлечён Заключение: этот трек - CDDA с вероятностью 100% Временный файл удалён.
    Завершено: четверг, 29. 05. 2014. - 22:24.05 (Время операции: 0:04.22)

    Об исполнителе (группе)

    Группа «КЕЙН» - это пятеро молодых парней, которые уже успели завоевать любовь тысяч поклонников и поклонниц по всей России. Выступая в стиле поп-рок, эти восходящие звезды покоряют площадку за площадкой своим драйвовым и пронзительным творчеством.
    На вопрос журналистов: «Есть ли у вас продюсер?», музыканты всегда отвечают: «Нет, мы сами по себе». А объяснить это широкой аудитории они попробовали в своем треке «Сам по себе» и одноименном дебютном альбоме.

    Об альбоме

    Весь материал был целиком и полностью написан, записан и спродюсирован участниками группы Данилом Кухаревым (вокал) и Виктором Поляковым (гитара).
    Истории из жизни, наблюдения, чувства и воспоминания превратились в композиции наполненные музыкальной гармонией и хорошим словом. Все песни альбома «Сам по себе» – это эпизоды из жизни участников группы, о которых они абсолютно честно рассказывают слушателю.
    Альбом получился очень разноплановым как тематически, так и стилистически: в нем можно услышать элементы фанка, рока, поп-музыки, рэп-рока и т.д. Музыканты уверены, что каждый сможет встретить в этих песнях и свое отражение. Самостоятельность, независимость, красота подачи, грув, разноплановость, чистота мыслей и откровенная тематика текстов – вот отличительные черты дебютного альбома группы.

    Состав

    Данил [КЕЙН] Кухарев - Вокал
    Виктор [СЛАЙ] Поляков - Гитара, вокал
    Дмитрий [МАЛДЕР] Сергеев - Гитара
    Андрей [БЭТМАН] Рохманенков - Бас
    Артём [ТЁМА] Кононов - Ударные
    Скачать .torrent

    Скачать торрент-файл бесплатно и на максимальной скорости!

    Как скачивать? · Что такое торрент? · Рейтинг и ограничения

    !ВНИМАНИЕ!
    Сайт не распространяет и не хранит электронные версии произведений, а занимается лишь лишь предоставлением доступа к создаваемому пользователями каталогу ссылок на торрент-файлы, которые содержат только списки хеш-сумм, убедительная просьба с жалобами обращаться напрямую к пользователю. Файлы для обмена на трекере предоставлены пользователями сайта, и администрация не несёт ответственности за их содержание. Просьба не заливать файлы, защищенные авторскими правами, а также файлы нелегального содержания!

    [Профиль] [ЛС]
    Показать сообщения:    
    Ответить на тему

    Текущее время: Сегодня, в 10:40

    Часовой пояс: GMT + 2



    Вы не можете начинать темы
    Вы не можете отвечать на сообщения
    Вы не можете редактировать свои сообщения
    Вы не можете удалять свои сообщения
    Вы не можете голосовать в опросах
    Вы не можете прикреплять файлы к сообщениям
    Вы не можете скачивать файлы