BitTorrentTracker PerecTracker.org
BitTorrentTracker PerecTracker.org
    
Регистрация  ·  Вход
 
 · 
Забыли пароль?

  • (rock , avantgarde) АукцЫон - ЮЛА - 2011, WavPack (image+.cue), lossless

    Ответить на тему
     
    Автор Сообщение

    Columb

    Создавать темы 01-Июн-2014 10:18

           

    [Цитировать]

    АукцЫон - ЮЛА
    Жанр: rock
    Страна-производитель диска: Россия
    Год издания диска: 2011
    Издатель (лейбл): GEO
    Номер по каталогу: GEO 035
    Страна: Россия
    Аудиокодек: WavPack (*.wv)
    Тип рипа: image+.cue
    Битрейт аудио: lossless
    Продолжительность: 00:44:06
    Наличие сканов в содержимом раздачи: да
    Треклист:
    01 - Огонь
    02 - Хомба
    03 - Метели
    04 - Шишки
    05 - Полдень
    06 - Природа
    07 - Кожаный
    08 - Мимо
    09 - Летучая
    10 - Карандаши и палочки
    11 - Юла

    Лог создания рипа

    Exact Audio Copy V0.99 prebeta 5 from 4. May 2009
    Отчёт EAC об извлечении, выполненном 7. октября 2011, 14:45
    АукцЫон / ЮЛА (GEO 035 CD)
    Дисковод: ASUS DRW-1814BL Adapter: 0 ID: 0
    Режим чтения : ДостоверностьИспользование точного потока : ДаОтключение кэша аудио : ДаИспользование указателей C2 : Нет
    Коррекция смещения при чтении : 6Способность читать области Lead-in и Lead-out : НетЗаполнение пропущенных сэмплов тишиной : ДаУдаление блоков с тишиной в начале и конце : НетПри вычислениях CRC использовались нулевые сэмплы : ДаИнтерфейс : Встроенный Win32-интерфейс для Win NT/2000
    Выходной формат : Внутренние WAV-операцииФормат сэмплов : 44.100 Гц; 16 бит; стерео
    TOC извлечённого CD
    Трек | Старт | Длительность | Начальный сектор | Конечный сектор --------------------------------------------------------------------- 1 | 0:00.00 | 5:03.09 | 0 | 22733 2 | 5:03.09 | 3:54.35 | 22734 | 40318 3 | 8:57.44 | 2:19.10 | 40319 | 50753 4 | 11:16.54 | 2:18.57 | 50754 | 61160 5 | 13:35.36 | 2:34.01 | 61161 | 72711 6 | 16:09.37 | 4:19.73 | 72712 | 92209 7 | 20:29.35 | 3:45.39 | 92210 | 109123 8 | 24:14.74 | 5:19.40 | 109124 | 133088 9 | 29:34.39 | 6:30.50 | 133089 | 162388 10 | 36:05.14 | 4:01.22 | 162389 | 180485 11 | 40:06.36 | 4:00.00 | 180486 | 198485
    Характеристики диапазона извлечения и сообщения об ошибках
    Выбранный диапазон
    Имя файла G:\ley-barmaley\lossless-galaxy.ru\АукцЫон - ЮЛА (GEO 035 CD) [lossless-galaxy].wav
    Пиковый уровень 100.0 % Качество диапазона 100.0 % CRC теста 206116EF CRC копии 206116EF Копирование... OK
    Ошибок не произошло
    AccurateRip: сводка
    Трек 1 нет в базе данныхТрек 2 нет в базе данныхТрек 3 нет в базе данныхТрек 4 нет в базе данныхТрек 5 нет в базе данныхТрек 6 нет в базе данныхТрек 7 нет в базе данныхТрек 8 нет в базе данныхТрек 9 нет в базе данныхТрек 10 нет в базе данныхТрек 11 нет в базе данных
    Ни одного трека нет в базе AccurateRip
    Конец отчёта
    Скачать .torrent

    Скачать торрент-файл бесплатно и на максимальной скорости!

    Как скачивать? · Что такое торрент? · Рейтинг и ограничения

    !ВНИМАНИЕ!
    Сайт не распространяет и не хранит электронные версии произведений, а занимается лишь лишь предоставлением доступа к создаваемому пользователями каталогу ссылок на торрент-файлы, которые содержат только списки хеш-сумм, убедительная просьба с жалобами обращаться напрямую к пользователю. Файлы для обмена на трекере предоставлены пользователями сайта, и администрация не несёт ответственности за их содержание. Просьба не заливать файлы, защищенные авторскими правами, а также файлы нелегального содержания!

    [Профиль] [ЛС]
    Показать сообщения:    
    Ответить на тему

    Текущее время: Сегодня, в 08:15

    Часовой пояс: GMT + 2



    Вы не можете начинать темы
    Вы не можете отвечать на сообщения
    Вы не можете редактировать свои сообщения
    Вы не можете удалять свои сообщения
    Вы не можете голосовать в опросах
    Вы не можете прикреплять файлы к сообщениям
    Вы не можете скачивать файлы