BitTorrentTracker PerecTracker.org
BitTorrentTracker PerecTracker.org
    
Регистрация  ·  Вход
 
 · 
Забыли пароль?

  • (rock , avantgarde) АукцЫон - Бодун - 1991 (переиздание 2003), APE (image+.cue), lossless

    Ответить на тему
     
    Автор Сообщение

    Columb

    Создавать темы 01-Июн-2014 10:15

           

    [Цитировать]

    АукцЫон - Бодун
    Жанр: rock , avantgarde
    Страна-производитель диска: Россия
    Год издания диска: 1991 (переиздание 2003)
    Издатель (лейбл): Мистерия Паблишинг
    Номер по каталогу: MZ 152-9
    Страна: Россия
    Аудиокодек: APE (*.ape)
    Тип рипа: image+.cue
    Битрейт аудио: lossless
    Продолжительность: 00:42:35
    Наличие сканов в содержимом раздачи: да
    Треклист:
    01 - В нелюди
    02 - День Победы
    03 - Ушла
    04 - Сирота
    05 - Слон
    06 - Фа-фа
    07 - Warum?
    08 - Лётчик
    09 - Песня про столбы (Warum?-2)
    10 - Зима
    11 - Отлюбил

    Лог создания рипа

    Exact Audio Copy V0.99 prebeta 4 from 23. January 2008
    Отчёт EAC об извлечении, выполненном 14. ноября 2008, 15:35
    АукцЫон / Бодун
    Дисковод: ASUS DRW-1608P2S Adapter: 1 ID: 0
    Режим чтения : ДостоверностьИспользование точного потока : ДаОтключение кэша аудио : ДаИспользование указателей C2 : Нет
    Коррекция смещения при чтении : 48Способность читать области Lead-in и Lead-out : НетЗаполнение пропущенных сэмплов тишиной : ДаУдаление блоков с тишиной в начале и конце : НетПри вычислениях CRC использовались нулевые сэмплы : ДаИнтерфейс : Встроенный Win32-интерфейс для Win NT/2000
    Выходной формат : Внутренние WAV-операцииФормат сэмплов : 44.100 Гц; 16 бит; стерео
    TOC извлечённого CD
    Трек | Старт | Длительность | Начальный сектор | Конечный сектор --------------------------------------------------------------------- 1 | 0:00.00 | 1:42.58 | 0 | 7707 2 | 1:42.58 | 4:07.66 | 7708 | 26298 3 | 5:50.49 | 5:03.07 | 26299 | 49030 4 | 10:53.56 | 5:01.60 | 49031 | 71665 5 | 15:55.41 | 3:24.02 | 71666 | 86967 6 | 19:19.43 | 6:12.47 | 86968 | 114914 7 | 25:32.15 | 2:39.43 | 114915 | 126882 8 | 28:11.58 | 2:30.29 | 126883 | 138161 9 | 30:42.12 | 3:03.11 | 138162 | 151897 10 | 33:45.23 | 5:22.39 | 151898 | 176086 11 | 39:07.62 | 3:28.07 | 176087 | 191693
    Характеристики диапазона извлечения и сообщения об ошибках
    Выбранный диапазон
    Имя файла C:\Documents and Settings\ANTONIONI\Мои документы\АукцЫон - Бодун.wav
    Пиковый уровень 100.0 % Качество диапазона 99.9 % CRC копии 4895B598 Копирование... OK
    Ошибок не произошло
    Конец отчёта
    Скачать .torrent

    Скачать торрент-файл бесплатно и на максимальной скорости!

    Как скачивать? · Что такое торрент? · Рейтинг и ограничения

    !ВНИМАНИЕ!
    Сайт не распространяет и не хранит электронные версии произведений, а занимается лишь лишь предоставлением доступа к создаваемому пользователями каталогу ссылок на торрент-файлы, которые содержат только списки хеш-сумм, убедительная просьба с жалобами обращаться напрямую к пользователю. Файлы для обмена на трекере предоставлены пользователями сайта, и администрация не несёт ответственности за их содержание. Просьба не заливать файлы, защищенные авторскими правами, а также файлы нелегального содержания!

    [Профиль] [ЛС]
    Показать сообщения:    
    Ответить на тему

    Текущее время: Сегодня, в 09:11

    Часовой пояс: GMT + 2



    Вы не можете начинать темы
    Вы не можете отвечать на сообщения
    Вы не можете редактировать свои сообщения
    Вы не можете удалять свои сообщения
    Вы не можете голосовать в опросах
    Вы не можете прикреплять файлы к сообщениям
    Вы не можете скачивать файлы