BitTorrentTracker PerecTracker.org
BitTorrentTracker PerecTracker.org
    
Регистрация  ·  Вход
 
 · 
Забыли пароль?

  • (rock , avantgarde) АукцЫон - В Багдаде всё спокойно - 1989 (переиздание 2000), APE (image+.cue), lossless

    Ответить на тему
     
    Автор Сообщение

    Columb

    Создавать темы 01-Июн-2014 10:13

           

    [Цитировать]

    АукцЫон - В Багдаде всё спокойно
    Жанр: rock , avantgarde
    Страна-производитель диска: Россия
    Год издания: 1989
    Издатель (лейбл): Moroz Records
    Номер по каталогу: MR 00337 CD
    Страна: Россия
    Аудиокодек: APE (*.ape)
    Тип рипа: image+.cue
    Битрейт аудио: lossless
    Продолжительность: 00:36:32
    Наличие сканов в содержимом раздачи: да
    Треклист:
    01 - Путь в Джинистан
    02 - Банзай
    03 - Водяная дисциплина
    04 - Одинокий мужчина
    05 - Жертвоприношение
    06 - Карлик-нос
    07 - Колдун
    08 - Тоска

    Лог создания рипа

    Exact Audio Copy V0.99 prebeta 4 from 23. January 2008
    Отчёт EAC об извлечении, выполненном 27. декабря 2008, 19:14
    АукцЫон / В Багдаде всё спокойно
    Дисковод: ASUS DRW-1608P2S Adapter: 1 ID: 0
    Режим чтения : ДостоверностьИспользование точного потока : ДаОтключение кэша аудио : ДаИспользование указателей C2 : Нет
    Коррекция смещения при чтении : 48Способность читать области Lead-in и Lead-out : НетЗаполнение пропущенных сэмплов тишиной : ДаУдаление блоков с тишиной в начале и конце : НетПри вычислениях CRC использовались нулевые сэмплы : ДаИнтерфейс : Встроенный Win32-интерфейс для Win NT/2000
    Выходной формат : Внутренние WAV-операцииФормат сэмплов : 44.100 Гц; 16 бит; стерео
    TOC извлечённого CD
    Трек | Старт | Длительность | Начальный сектор | Конечный сектор --------------------------------------------------------------------- 1 | 0:00.30 | 4:24.52 | 30 | 19881 2 | 4:25.07 | 3:58.36 | 19882 | 37767 3 | 8:23.43 | 5:28.55 | 37768 | 62422 4 | 13:52.23 | 3:49.52 | 62423 | 79649 5 | 17:42.00 | 4:37.33 | 79650 | 100457 6 | 22:19.33 | 4:57.59 | 100458 | 122791 7 | 27:17.17 | 4:38.70 | 122792 | 143711 8 | 31:56.12 | 4:36.65 | 143712 | 164476
    Характеристики диапазона извлечения и сообщения об ошибках
    Выбранный диапазон
    Имя файла C:\Documents and Settings\All Users\Документы\Моя музыка\Образцы музыки\АукцЫон - В Багдаде всё спокойно.wav
    Пиковый уровень 97.7 % Качество диапазона 100.0 % CRC копии 07688D15 Копирование... OK
    Ошибок не произошло
    Конец отчёта
    Скачать .torrent

    Скачать торрент-файл бесплатно и на максимальной скорости!

    Как скачивать? · Что такое торрент? · Рейтинг и ограничения

    !ВНИМАНИЕ!
    Сайт не распространяет и не хранит электронные версии произведений, а занимается лишь лишь предоставлением доступа к создаваемому пользователями каталогу ссылок на торрент-файлы, которые содержат только списки хеш-сумм, убедительная просьба с жалобами обращаться напрямую к пользователю. Файлы для обмена на трекере предоставлены пользователями сайта, и администрация не несёт ответственности за их содержание. Просьба не заливать файлы, защищенные авторскими правами, а также файлы нелегального содержания!

    [Профиль] [ЛС]
    Показать сообщения:    
    Ответить на тему

    Текущее время: Сегодня, в 04:32

    Часовой пояс: GMT + 2



    Вы не можете начинать темы
    Вы не можете отвечать на сообщения
    Вы не можете редактировать свои сообщения
    Вы не можете удалять свои сообщения
    Вы не можете голосовать в опросах
    Вы не можете прикреплять файлы к сообщениям
    Вы не можете скачивать файлы