BitTorrentTracker PerecTracker.org
BitTorrentTracker PerecTracker.org
    
Регистрация  ·  Вход
 
 · 
Забыли пароль?

  • (rock , avantgarde) АукцЫон - [цензура] - 1990 (переиздание 2003), APE (image+.cue), lossless

    Ответить на тему
     
    Автор Сообщение

    Columb

    Создавать темы 31-Май-2014 11:59

           

    [Цитировать]

    АукцЫон - [цензура] (переиздание 2003)
    Жанр: rock , avantgarde
    Страна-производитель диска: Россия
    Год издания: 1990
    Издатель (лейбл): Мистерия паблишинг
    Номер по каталогу: MZ 151-9
    Страна: Россия
    Аудиокодек: APE (*.ape)
    Тип рипа: image+.cue
    Битрейт аудио: lossless
    Продолжительность: 00:54:55
    Наличие сканов в содержимом раздачи: да
    Треклист:
    01 - Колпак
    02 - Немой
    03 - Пионер
    04 - Боюсь
    05 - Ябеда
    06 - Самолёт
    07 - Любовь
    08 - Вру
    09 - Выжить
    10 - Убьют

    Лог создания рипа

    Exact Audio Copy V0.99 prebeta 4 from 23. January 2008
    Отчёт EAC об извлечении, выполненном 29. января 2009, 19:15
    АукцЫон / [цензура]
    Дисковод: ASUS DRW-1608P2S Adapter: 1 ID: 0
    Режим чтения : ДостоверностьИспользование точного потока : ДаОтключение кэша аудио : ДаИспользование указателей C2 : Нет
    Коррекция смещения при чтении : 48Способность читать области Lead-in и Lead-out : НетЗаполнение пропущенных сэмплов тишиной : ДаУдаление блоков с тишиной в начале и конце : НетПри вычислениях CRC использовались нулевые сэмплы : ДаИнтерфейс : Встроенный Win32-интерфейс для Win NT/2000
    Выходной формат : Внутренние WAV-операцииФормат сэмплов : 44.100 Гц; 16 бит; стерео
    TOC извлечённого CD
    Трек | Старт | Длительность | Начальный сектор | Конечный сектор --------------------------------------------------------------------- 1 | 0:00.00 | 5:59.60 | 0 | 26984 2 | 5:59.60 | 5:22.65 | 26985 | 51199 3 | 11:22.50 | 5:26.45 | 51200 | 75694 4 | 16:49.20 | 6:01.05 | 75695 | 102774 5 | 22:50.25 | 4:37.38 | 102775 | 123587 6 | 27:27.63 | 6:18.40 | 123588 | 151977 7 | 33:46.28 | 6:02.20 | 151978 | 179147 8 | 39:48.48 | 5:35.52 | 179148 | 204324 9 | 45:24.25 | 5:03.58 | 204325 | 227107 10 | 50:28.08 | 4:26.72 | 227108 | 247129
    Характеристики диапазона извлечения и сообщения об ошибках
    Выбранный диапазон
    Имя файла C:\Documents and Settings\All Users\Документы\Моя музыка\Образцы музыки\АукцЫон - [цензура].wav
    Пиковый уровень 95.5 % Качество диапазона 99.9 % CRC копии 63F8F738 Копирование... OK
    Ошибок не произошло
    Конец отчёта
    Скачать .torrent

    Скачать торрент-файл бесплатно и на максимальной скорости!

    Как скачивать? · Что такое торрент? · Рейтинг и ограничения

    !ВНИМАНИЕ!
    Сайт не распространяет и не хранит электронные версии произведений, а занимается лишь лишь предоставлением доступа к создаваемому пользователями каталогу ссылок на торрент-файлы, которые содержат только списки хеш-сумм, убедительная просьба с жалобами обращаться напрямую к пользователю. Файлы для обмена на трекере предоставлены пользователями сайта, и администрация не несёт ответственности за их содержание. Просьба не заливать файлы, защищенные авторскими правами, а также файлы нелегального содержания!

    [Профиль] [ЛС]
    Показать сообщения:    
    Ответить на тему

    Текущее время: Сегодня, в 18:35

    Часовой пояс: GMT + 2



    Вы не можете начинать темы
    Вы не можете отвечать на сообщения
    Вы не можете редактировать свои сообщения
    Вы не можете удалять свои сообщения
    Вы не можете голосовать в опросах
    Вы не можете прикреплять файлы к сообщениям
    Вы не можете скачивать файлы