BitTorrentTracker PerecTracker.org
BitTorrentTracker PerecTracker.org
    
Регистрация  ·  Вход
 
 · 
Забыли пароль?

  • (rock , avantgarde) АукцЫон - Птица - 1993 (переиздание 2004), FLAC (image+.cue), lossless

    Ответить на тему
     
    Автор Сообщение

    Columb

    Создавать темы 31-Май-2014 11:57

           

    [Цитировать]

    АукцЫон - Птица - 1993 (переиздание 2004)
    Жанр: rock , avantgarde
    Страна-производитель диска: Россия
    Год издания диска: 2004
    Издатель (лейбл): Мистерия Паблишинг
    Номер по каталогу: Most CD 941
    Страна: Россия
    Аудиокодек: FLAC (*.flac)
    Тип рипа: image+.cue
    Битрейт аудио: lossless
    Продолжительность: 00:42:57
    Наличие сканов в содержимом раздачи: да
    Треклист:
    01 - Птица
    02 - Дорога
    03 - Глаза
    04 - Всё вертится
    05 - Седьмой
    06 - Уши
    07 - Ещё не поздно
    08 - С днем рождения
    09 - Моя любовь
    10 - Спи, солдат
    11 - Колик

    Лог создания рипа

    Exact Audio Copy V0.99 prebeta 4 from 23. January 2008
    Отчёт EAC об извлечении, выполненном 4. октября 2008, 23:29
    АукцЫон / Птица
    Дисковод: ASUS DRW-1608P2S Adapter: 1 ID: 0
    Режим чтения : ДостоверностьИспользование точного потока : ДаОтключение кэша аудио : ДаИспользование указателей C2 : Нет
    Коррекция смещения при чтении : 48Способность читать области Lead-in и Lead-out : НетЗаполнение пропущенных сэмплов тишиной : ДаУдаление блоков с тишиной в начале и конце : НетПри вычислениях CRC использовались нулевые сэмплы : ДаИнтерфейс : Установленный внешний ASPI-интерфейс
    Выходной формат : Пользовательский кодировщикВыбранный битрейт : 768 kBit/sКачество : ВысокийДобавление ID3-тэга : НетУтилита сжатия : C:\Program Files\Exact Audio Copy\FLAC\FLAC.EXEДополнительные параметры : -6 -V -T "ARTIST=%a" -T "TITLE=%t" -T "ALBUM=%g" -T "DATE=%y" -T "TRACKNUMBER=%n" -T "GENRE=%m" -T "COMMENT=%e" %s -o %d
    TOC извлечённого CD
    Трек | Старт | Длительность | Начальный сектор | Конечный сектор --------------------------------------------------------------------- 1 | 0:00.00 | 3:21.05 | 0 | 15079 2 | 3:21.05 | 3:17.65 | 15080 | 29919 3 | 6:38.70 | 4:59.55 | 29920 | 52399 4 | 11:38.50 | 4:02.47 | 52400 | 70596 5 | 15:41.22 | 6:00.60 | 70597 | 97656 6 | 21:42.07 | 2:56.05 | 97657 | 110861 7 | 24:38.12 | 3:41.23 | 110862 | 127459 8 | 28:19.35 | 3:22.05 | 127460 | 142614 9 | 31:41.40 | 4:22.70 | 142615 | 162334 10 | 36:04.35 | 5:59.07 | 162335 | 189266 11 | 42:03.42 | 0:53.40 | 189267 | 193281
    Характеристики диапазона извлечения и сообщения об ошибках
    Выбранный диапазон
    Имя файла C:\Documents and Settings\EUGEN\Мои документы\АукцЫон - Птица.wav
    Пиковый уровень 98.8 % Качество диапазона 100.0 % CRC копии 013D8631 Копирование... OK
    Ошибок не произошло
    Конец отчёта
    Скачать .torrent

    Скачать торрент-файл бесплатно и на максимальной скорости!

    Как скачивать? · Что такое торрент? · Рейтинг и ограничения

    !ВНИМАНИЕ!
    Сайт не распространяет и не хранит электронные версии произведений, а занимается лишь лишь предоставлением доступа к создаваемому пользователями каталогу ссылок на торрент-файлы, которые содержат только списки хеш-сумм, убедительная просьба с жалобами обращаться напрямую к пользователю. Файлы для обмена на трекере предоставлены пользователями сайта, и администрация не несёт ответственности за их содержание. Просьба не заливать файлы, защищенные авторскими правами, а также файлы нелегального содержания!

    [Профиль] [ЛС]
    Показать сообщения:    
    Ответить на тему

    Текущее время: Сегодня, в 10:23

    Часовой пояс: GMT + 2



    Вы не можете начинать темы
    Вы не можете отвечать на сообщения
    Вы не можете редактировать свои сообщения
    Вы не можете удалять свои сообщения
    Вы не можете голосовать в опросах
    Вы не можете прикреплять файлы к сообщениям
    Вы не можете скачивать файлы