BitTorrentTracker PerecTracker.org
BitTorrentTracker PerecTracker.org
    
Регистрация  ·  Вход
 
 · 
Забыли пароль?

  • (rock , avantgarde) АукцЫон - Это мама - 2002, FLAC (image+.cue), lossless

    Ответить на тему
     
    Автор Сообщение

    Columb

    Создавать темы 31-Май-2014 11:55

           

    [Цитировать]

    Аукцыон - Это мама
    Жанр: Rock
    Страна-производитель диска: Россия
    Год издания диска: 2002
    Издатель (лейбл): Мистерия Паблишинг
    Номер по каталогу: MZ 033-9
    Страна: Россия
    Аудиокодек: FLAC (*.flac)
    Тип рипа: image+.cue
    Битрейт аудио: lossless
    Продолжительность: 01:03:39
    Наличие сканов в содержимом раздачи: да
    Треклист:
    01 - Якоря
    02 - Зима
    03 - Заведующий (Копорье)
    04 - Стало
    05 - Фа-фа-фа (Это мама)
    06 - Голова-нога
    07 - Зимы не будет
    08 - Осколки
    09 - Самолёт
    10 - О погоде

    Лог создания рипа

    Exact Audio Copy V0.99 prebeta 4 from 23. January 2008
    Отчёт EAC об извлечении, выполненном 5. октября 2008, 17:28
    АукцЫон / Это мама
    Дисковод: ASUS DRW-1608P2S Adapter: 1 ID: 0
    Режим чтения : ДостоверностьИспользование точного потока : ДаОтключение кэша аудио : ДаИспользование указателей C2 : Нет
    Коррекция смещения при чтении : 48Способность читать области Lead-in и Lead-out : НетЗаполнение пропущенных сэмплов тишиной : ДаУдаление блоков с тишиной в начале и конце : НетПри вычислениях CRC использовались нулевые сэмплы : ДаИнтерфейс : Установленный внешний ASPI-интерфейс
    Выходной формат : Пользовательский кодировщикВыбранный битрейт : 768 kBit/sКачество : ВысокийДобавление ID3-тэга : НетУтилита сжатия : C:\Program Files\Exact Audio Copy\FLAC\FLAC.EXEДополнительные параметры : -6 -V -T "ARTIST=%a" -T "TITLE=%t" -T "ALBUM=%g" -T "DATE=%y" -T "TRACKNUMBER=%n" -T "GENRE=%m" -T "COMMENT=%e" %s -o %d
    TOC извлечённого CD
    Трек | Старт | Длительность | Начальный сектор | Конечный сектор --------------------------------------------------------------------- 1 | 0:00.00 | 7:42.47 | 0 | 34696 2 | 7:42.47 | 5:42.61 | 34697 | 60407 3 | 13:25.33 | 6:05.66 | 60408 | 87848 4 | 19:31.24 | 3:49.35 | 87849 | 105058 5 | 23:20.59 | 9:35.71 | 105059 | 148254 6 | 32:56.55 | 4:37.14 | 148255 | 169043 7 | 37:33.69 | 4:47.03 | 169044 | 190571 8 | 42:20.72 | 7:10.63 | 190572 | 222884 9 | 49:31.60 | 8:13.41 | 222885 | 259900 10 | 57:45.26 | 5:53.57 | 259901 | 286432
    Характеристики диапазона извлечения и сообщения об ошибках
    Выбранный диапазон
    Имя файла C:\Documents and Settings\EUGEN\Мои документы\АукцЫон - Это мама.wav
    Пиковый уровень 100.0 % Качество диапазона 99.9 % CRC копии 8DF8764E Копирование... OK
    Ошибок не произошло
    Конец отчёта
    Скачать .torrent

    Скачать торрент-файл бесплатно и на максимальной скорости!

    Как скачивать? · Что такое торрент? · Рейтинг и ограничения

    !ВНИМАНИЕ!
    Сайт не распространяет и не хранит электронные версии произведений, а занимается лишь лишь предоставлением доступа к создаваемому пользователями каталогу ссылок на торрент-файлы, которые содержат только списки хеш-сумм, убедительная просьба с жалобами обращаться напрямую к пользователю. Файлы для обмена на трекере предоставлены пользователями сайта, и администрация не несёт ответственности за их содержание. Просьба не заливать файлы, защищенные авторскими правами, а также файлы нелегального содержания!

    [Профиль] [ЛС]
    Показать сообщения:    
    Ответить на тему

    Текущее время: Сегодня, в 10:45

    Часовой пояс: GMT + 2



    Вы не можете начинать темы
    Вы не можете отвечать на сообщения
    Вы не можете редактировать свои сообщения
    Вы не можете удалять свои сообщения
    Вы не можете голосовать в опросах
    Вы не можете прикреплять файлы к сообщениям
    Вы не можете скачивать файлы