BitTorrentTracker PerecTracker.org
BitTorrentTracker PerecTracker.org
    
Регистрация  ·  Вход
 
 · 
Забыли пароль?

  • (rock , avantgarde) Хвост и АукцЫон - Верпования - 2001, APE (image+.cue), lossless

    Ответить на тему
     
    Автор Сообщение

    Columb

    Создавать темы 31-Май-2014 11:54

           

    [Цитировать]

    Хвост и АукцЫон - Верпования
    Жанр: rock , avantgarde
    Страна-производитель диска: Россия
    Год издания диска: 2001
    Издатель (лейбл): Манчестер
    Номер по каталогу: CDMAN 073-01
    Страна: Россия
    Аудиокодек: APE (*.ape)
    Тип рипа: image+.cue
    Битрейт аудио: lossless
    Продолжительность: 00:46:30
    Наличие сканов в содержимом раздачи: да
    Треклист:
    01 - Утро
    02 - День
    03 - Вечер
    04 - Ночь
    05 - Эпиталама Геннадию Снегирёву
    06 - Куплеты Евсея из пьесы 'Педант'
    07 - Чайник вина

    Лог создания рипа

    Exact Audio Copy V0.99 prebeta 4 from 23. January 2008
    Отчёт EAC об извлечении, выполненном 24. декабря 2008, 15:52
    Хвост и АукцЫон / Верпования
    Дисковод: ASUS DRW-1608P2S Adapter: 1 ID: 0
    Режим чтения : ДостоверностьИспользование точного потока : ДаОтключение кэша аудио : ДаИспользование указателей C2 : Нет
    Коррекция смещения при чтении : 48Способность читать области Lead-in и Lead-out : НетЗаполнение пропущенных сэмплов тишиной : ДаУдаление блоков с тишиной в начале и конце : НетПри вычислениях CRC использовались нулевые сэмплы : ДаИнтерфейс : Встроенный Win32-интерфейс для Win NT/2000
    Выходной формат : Внутренние WAV-операцииФормат сэмплов : 44.100 Гц; 16 бит; стерео
    TOC извлечённого CD
    Трек | Старт | Длительность | Начальный сектор | Конечный сектор --------------------------------------------------------------------- 1 | 0:00.00 | 8:19.52 | 0 | 37476 2 | 8:19.52 | 11:10.39 | 37477 | 87765 3 | 19:30.16 | 10:29.47 | 87766 | 134987 4 | 29:59.63 | 3:59.04 | 134988 | 152916 5 | 33:58.67 | 2:56.11 | 152917 | 166127 6 | 36:55.03 | 4:54.15 | 166128 | 188192 7 | 41:49.18 | 4:41.23 | 188193 | 209290
    Характеристики диапазона извлечения и сообщения об ошибках
    Выбранный диапазон
    Имя файла C:\Documents and Settings\EUGEN\Мои документы\Хвост и АукцЫон - Верпования.wav
    Пиковый уровень 92.3 % Качество диапазона 100.0 % CRC копии BEF75663 Копирование... OK
    Ошибок не произошло
    Конец отчёта
    Скачать .torrent

    Скачать торрент-файл бесплатно и на максимальной скорости!

    Как скачивать? · Что такое торрент? · Рейтинг и ограничения

    !ВНИМАНИЕ!
    Сайт не распространяет и не хранит электронные версии произведений, а занимается лишь лишь предоставлением доступа к создаваемому пользователями каталогу ссылок на торрент-файлы, которые содержат только списки хеш-сумм, убедительная просьба с жалобами обращаться напрямую к пользователю. Файлы для обмена на трекере предоставлены пользователями сайта, и администрация не несёт ответственности за их содержание. Просьба не заливать файлы, защищенные авторскими правами, а также файлы нелегального содержания!

    [Профиль] [ЛС]
    Показать сообщения:    
    Ответить на тему

    Текущее время: Сегодня, в 19:55

    Часовой пояс: GMT + 2



    Вы не можете начинать темы
    Вы не можете отвечать на сообщения
    Вы не можете редактировать свои сообщения
    Вы не можете удалять свои сообщения
    Вы не можете голосовать в опросах
    Вы не можете прикреплять файлы к сообщениям
    Вы не можете скачивать файлы