BitTorrentTracker PerecTracker.org
BitTorrentTracker PerecTracker.org
    
Регистрация  ·  Вход
 
 · 
Забыли пароль?

  • (rock , avantgarde) Хвост и АукцЫон - Жилец вершин - 1995 (переиздание 2003), APE (image+.cue), lossless

    Ответить на тему
     
    Автор Сообщение

    Columb

    Создавать темы 31-Май-2014 11:52

           

    [Цитировать]

    Хвост и АукцЫон - Жилец вершин
    Жанр: rock , avantgarde
    Страна-производитель диска: Россия
    Год издания диска: 1995
    Издатель (лейбл): Мистерия Паблишинг (2003)
    Страна: Россия
    Аудиокодек: APE (*.ape)
    Тип рипа: image+.cue
    Битрейт аудио: lossless
    Продолжительность: 00:48:45
    Источник (релизер): СПАМ
    Наличие сканов в содержимом раздачи: да
    Треклист:
    01 - Мешок Бобэоби
    02 - Благовест
    03 - Иверни, выверни
    04 - Три и два
    05 - Призраки
    06 - Гроб
    07 - Утопленники
    08 - Могатырь
    09 - Кузнечик
    10 - Боги I
    11 - Чудовище
    12 - Боги II
    13 - Нега-неголь
    14 - Весёлое место
    15 - Бобэоби

    Лог создания рипа

    Exact Audio Copy V0.99 prebeta 4 from 23. January 2008
    Отчёт EAC об извлечении, выполненном 14. ноября 2008, 15:46
    Хвост и АукцЫон / Жилец вершин
    Дисковод: ASUS DRW-1608P2S Adapter: 1 ID: 0
    Режим чтения : ДостоверностьИспользование точного потока : ДаОтключение кэша аудио : ДаИспользование указателей C2 : Нет
    Коррекция смещения при чтении : 48Способность читать области Lead-in и Lead-out : НетЗаполнение пропущенных сэмплов тишиной : ДаУдаление блоков с тишиной в начале и конце : НетПри вычислениях CRC использовались нулевые сэмплы : ДаИнтерфейс : Встроенный Win32-интерфейс для Win NT/2000
    Выходной формат : Внутренние WAV-операцииФормат сэмплов : 44.100 Гц; 16 бит; стерео
    TOC извлечённого CD
    Трек | Старт | Длительность | Начальный сектор | Конечный сектор --------------------------------------------------------------------- 1 | 0:00.00 | 3:44.35 | 0 | 16834 2 | 3:44.35 | 2:58.42 | 16835 | 30226 3 | 6:43.02 | 2:40.56 | 30227 | 42282 4 | 9:23.58 | 2:15.32 | 42283 | 52439 5 | 11:39.15 | 4:37.26 | 52440 | 73240 6 | 16:16.41 | 1:49.45 | 73241 | 81460 7 | 18:06.11 | 4:10.21 | 81461 | 100231 8 | 22:16.32 | 4:44.63 | 100232 | 121594 9 | 27:01.20 | 2:54.51 | 121595 | 134695 10 | 29:55.71 | 2:48.45 | 134696 | 147340 11 | 32:44.41 | 2:15.13 | 147341 | 157478 12 | 34:59.54 | 1:50.51 | 157479 | 165779 13 | 36:50.30 | 7:36.02 | 165780 | 199981 14 | 44:26.32 | 1:19.66 | 199982 | 205972 15 | 45:46.23 | 2:59.06 | 205973 | 219403
    Характеристики диапазона извлечения и сообщения об ошибках
    Выбранный диапазон
    Имя файла C:\Documents and Settings\ANTONIONI\Мои документы\Хвост и АукцЫон - Жилец вершин.wav
    Пиковый уровень 100.0 % Качество диапазона 100.0 % CRC копии 0C0ABA3B Копирование... OK
    Ошибок не произошло
    Конец отчёта
    Скачать .torrent

    Скачать торрент-файл бесплатно и на максимальной скорости!

    Как скачивать? · Что такое торрент? · Рейтинг и ограничения

    !ВНИМАНИЕ!
    Сайт не распространяет и не хранит электронные версии произведений, а занимается лишь лишь предоставлением доступа к создаваемому пользователями каталогу ссылок на торрент-файлы, которые содержат только списки хеш-сумм, убедительная просьба с жалобами обращаться напрямую к пользователю. Файлы для обмена на трекере предоставлены пользователями сайта, и администрация не несёт ответственности за их содержание. Просьба не заливать файлы, защищенные авторскими правами, а также файлы нелегального содержания!

    [Профиль] [ЛС]
    Показать сообщения:    
    Ответить на тему

    Текущее время: Сегодня, в 22:27

    Часовой пояс: GMT + 2



    Вы не можете начинать темы
    Вы не можете отвечать на сообщения
    Вы не можете редактировать свои сообщения
    Вы не можете удалять свои сообщения
    Вы не можете голосовать в опросах
    Вы не можете прикреплять файлы к сообщениям
    Вы не можете скачивать файлы