BitTorrentTracker PerecTracker.org
BitTorrentTracker PerecTracker.org
    
Регистрация  ·  Вход
 
 · 
Забыли пароль?

  • Wild Belle - Live at Gurtenfestival 2013 [2014, Psychedelic pop/Ska/Reggae/Funk/Rock/Jazz, HDTV 720p]

    Ответить на тему
     
    Автор Сообщение

    Columb

    Создавать темы 31-Май-2014 08:13

           

    [Цитировать]

    Wild Belle - Live at Gurtenfestival 2013
    Жанр: Psychedelic pop/Ska/Reggae/Funk/Rock/Jazz
    Продолжительность: 00:46:49
    Год выпуска: 2014
    Описание: Выступление американского indie rock бэнда Wild Belle на музыкальном фестивале Gurtenfestival в швейцарском Берне 2013 jul21
    Качество: HDTV 720p
    Контейнер: TS
    Видео кодек: H.264
    Аудио кодек: AC3
    Видео: Mpeg4 AVC, 1280x720, 10300 kbps, 50 fps Progressive
    Аудио: AC3, 448 kbps, 48 kHz, 5.1 ch
    Аудио 2: MP2, 192 kbps, 48 kHz, stereo
    Аудио 3: MP2, 192 kbps, 48 kHz, stereo

    Отчёт MediaInfo / BDInfo

    GeneralID : 1 (0x1)Complete name : D:\Downloads\Wild Belle - Live at Gurtenfestival 2013.tsFormat : MPEG-TSFile size : 3.85 GiBDuration : 46mn 49sOverall bit rate mode : VariableOverall bit rate : 11.8 Mbps
    VideoID : 512 (0x200)Menu ID : 1 (0x1)Format : AVCFormat/Info : Advanced Video CodecFormat profile : High@L4.0Format settings, CABAC : YesFormat settings, ReFrames : 3 framesFormat settings, GOP : M=2, N=24Codec ID : 27Duration : 46mn 49sBit rate : 10.3 MbpsWidth : 1 280 pixelsHeight : 720 pixelsDisplay aspect ratio : 16:9Frame rate : 50.000 fpsStandard : ComponentColor space : YUVChroma subsampling : 4:2:0Bit depth : 8 bitsScan type : ProgressiveBits/(Pixel*Frame) : 0.225Stream size : 3.38 GiB (88%)Color primaries : BT.709Transfer characteristics : BT.709Matrix coefficients : BT.709
    Audio #1ID : 513 (0x201)Menu ID : 1 (0x1)Format : MPEG AudioFormat version : Version 1Format profile : Layer 2Mode : Joint stereoMode extension : Intensity Stereo + MS StereoCodec ID : 3Duration : 46mn 49sBit rate mode : ConstantBit rate : 192 KbpsChannel(s) : 2 channelsSampling rate : 48.0 KHzCompression mode : LossyStream size : 64.3 MiB (2%)Language : German
    Audio #2ID : 514 (0x202)Menu ID : 1 (0x1)Format : MPEG AudioFormat version : Version 1Format profile : Layer 2Mode : Joint stereoMode extension : Intensity Stereo + MS StereoCodec ID : 3Duration : 46mn 49sBit rate mode : ConstantBit rate : 192 KbpsChannel(s) : 2 channelsSampling rate : 48.0 KHzCompression mode : LossyStream size : 64.3 MiB (2%)Language : English
    Audio #3ID : 515 (0x203)Menu ID : 1 (0x1)Format : AC-3Format/Info : Audio Coding 3Mode extension : CM (complete main)Format settings, Endianness : BigCodec ID : 6Duration : 46mn 49sBit rate mode : ConstantBit rate : 448 KbpsChannel(s) : 6 channelsChannel positions : Front: L C R, Side: L R, LFESampling rate : 48.0 KHzBit depth : 16 bitsCompression mode : LossyStream size : 150 MiB (4%)Language : German
    Text #1ID : 517 (0x205)-100Menu ID : 1 (0x1)Format : TeletextLanguage : German
    Text #2ID : 517 (0x205)-777Menu ID : 1 (0x1)Format : Teletext SubtitleLanguage : German
    MenuID : 511 (0x1FF)Menu ID : 1 (0x1)Duration : 46mn 49sList : 512 (0x200) (AVC) / 513 (0x201) (MPEG Audio, German) / 514 (0x202) (MPEG Audio, English) / 515 (0x203) (AC-3, German) / 517 (0x205) ()Language : / German / English / German

    Скриншоты

    Скачать .torrent

    Скачать торрент-файл бесплатно и на максимальной скорости!

    Как скачивать? · Что такое торрент? · Рейтинг и ограничения

    !ВНИМАНИЕ!
    Сайт не распространяет и не хранит электронные версии произведений, а занимается лишь лишь предоставлением доступа к создаваемому пользователями каталогу ссылок на торрент-файлы, которые содержат только списки хеш-сумм, убедительная просьба с жалобами обращаться напрямую к пользователю. Файлы для обмена на трекере предоставлены пользователями сайта, и администрация не несёт ответственности за их содержание. Просьба не заливать файлы, защищенные авторскими правами, а также файлы нелегального содержания!

    [Профиль] [ЛС]
    Показать сообщения:    
    Ответить на тему

    Текущее время: Сегодня, в 13:54

    Часовой пояс: GMT + 2



    Вы не можете начинать темы
    Вы не можете отвечать на сообщения
    Вы не можете редактировать свои сообщения
    Вы не можете удалять свои сообщения
    Вы не можете голосовать в опросах
    Вы не можете прикреплять файлы к сообщениям
    Вы не можете скачивать файлы