BitTorrentTracker PerecTracker.org
BitTorrentTracker PerecTracker.org
    
Регистрация  ·  Вход
 
 · 
Забыли пароль?

  • VA - Øya (Oya) Festival (feat. Wu-Tang Clan, Cat Power, Angel Haze, Laura Mvula, Alabama Shakes, Kvelertak, Local Natives, Haim, Kraftwerk ...) [2013, Rock, Hip-Hop & Elektro im Oslo Fjord / Documentary, HDTV 720p]

    Ответить на тему
     
    Автор Сообщение

    Columb

    Создавать темы 31-Май-2014 08:07

           

    [Цитировать]

    Wu-Tang Clan, Cat Power, Angel Haze, Laura Mvula, Austra, Beach House, Alabama Shakes, Kvelertak, Mikhael Paskalev, Mø, Disclosure, Local Natives, Haim, Kraftwerk
    Øya Festival 2013

    Rock, Hip-Hop & Elektro im Oslo Fjord
    -Жанр: Rock, Hip Hop & Elektro im Oslo Fjord / Documentary
    Продолжительность: 01:28:29
    Год выпуска: 2013
    Musicians:
    Wu-Tang Clan
    Cat Power
    Angel Haze
    Laura Mvula
    Austra
    Beach House
    Alabama Shakes
    Kvelertak
    Mikhael Paskalev

    Disclosure
    Local Natives
    Haim
    Kraftwerk
    Track List:
    Wu-Tang Clan - Method Man
    Cat Power - Ruin
    Angel Haze - Drop It
    Laura Mvula - Let Me Fall / Green Garden
    Austra - Painful Like (fragm.)
    Beach House - Myth
    Alabama Shakes - Hang Loose
    Kvelertak - Åpenbaring / Evig Vandrar
    Mikhael Paskalev - Jive Baby
    - Maiden
    Disclosure - F For You
    Local Natives - Heavy Feet
    Haim - Forever / Falling
    Kraftwerk - Robots
    Доп. информация:
    Øya Festival 2013, 6-10 august, Oslo
    ... данный релиз не является одним сплошным концертом ...
    ... показаны фрагменты выступлений разных участников фестиваля ...
    ... в релизе есть небольшие интервью с некоторыми участниками этого фестиваля
    (закадровый перевод – французский язык, неубираемые субтитры - немецкий язык) ...
    Øya Festival 2013 arte.tv
    Alabama Shakes Official Site
    Alabama Shakes from Wikipedia, the free encyclopedia
    Качество: HDTV 720p
    Контейнер: TS
    Видео кодек: H.264
    Аудио кодек: AC3
    Видео: 11.0 Mbps, 1280*720 (16:9), at 50.000 fps, AVC (High@L3.2) (CABAC / 4 Ref Frames)
    Аудио: German, 192 Kbps, 48.0 KHz, 2 channels, MPEG Audio (Version 1) (Layer 2)
    Аудио 2: French, 192 Kbps, 48.0 KHz, 2 channels, MPEG Audio (Version 1) (Layer 2)
    Аудио 3: Multiple languages, 448 Kbps, 48.0 KHz, 16 bits, 6 channels, AC-3

    Отчёт MediaInfo / BDInfo

    GeneralID : 1 (0x1)Complete name : C:\arte HD_VA - Oya Festival 2013.tsFormat : MPEG-TSFile size : 7.69 GiBDuration : 1h 28mnOverall bit rate mode : VariableOverall bit rate : 12.4 Mbps
    VideoID : 5111 (0x13F7)Menu ID : 1 (0x1)Format : AVCFormat/Info : Advanced Video CodecFormat profile : High@L3.2Format settings, CABAC : YesFormat settings, ReFrames : 4 framesCodec ID : 27Duration : 1h 28mnBit rate : 11.0 MbpsWidth : 1 280 pixelsHeight : 720 pixelsDisplay aspect ratio : 16:9Frame rate : 50.000 fpsColor space : YUVChroma subsampling : 4:2:0Bit depth : 8 bitsScan type : ProgressiveBits/(Pixel*Frame) : 0.238Stream size : 6.79 GiB (88%)
    Audio #1ID : 5112 (0x13F8)Menu ID : 1 (0x1)Format : MPEG AudioFormat version : Version 1Format profile : Layer 2Codec ID : 3Duration : 1h 28mnBit rate mode : ConstantBit rate : 192 KbpsChannel(s) : 2 channelsSampling rate : 48.0 KHzCompression mode : LossyStream size : 122 MiB (2%)Language : German
    Audio #2ID : 5113 (0x13F9)Menu ID : 1 (0x1)Format : MPEG AudioFormat version : Version 1Format profile : Layer 2Codec ID : 3Duration : 1h 28mnBit rate mode : ConstantBit rate : 192 KbpsChannel(s) : 2 channelsSampling rate : 48.0 KHzCompression mode : LossyStream size : 122 MiB (2%)Language : French
    Audio #3ID : 5116 (0x13FC)Menu ID : 1 (0x1)Format : AC-3Format/Info : Audio Coding 3Mode extension : CM (complete main)Format settings, Endianness : BigCodec ID : 6Duration : 1h 28mnBit rate mode : ConstantBit rate : 448 KbpsChannel(s) : 6 channelsChannel positions : Front: L C R, Side: L R, LFESampling rate : 48.0 KHzBit depth : 16 bitsCompression mode : LossyStream size : 284 MiB (4%)Language : Multiple languages

    Скриншоты

    ... info ...

    Rock, hip-hop et �lectro dans les fjords d'Oslo Retour sur les temps forts de l'�ya Festival, au coeur de la capitale norv�gienne : la programmation �clectique d'un festival �thique et �colo. Avec Kraftwerk, Kvelertak, Haim, Alabama Shakes, Cat Power, Local Natives, Disclosure, Wu Tang Clan, Angel Haze, Laura Mvula, M�, Mikhael Paskalev, Beach House, Dungen.
    Apr�s des d�buts modestes en 1999, l’�ya Festival est devenu l’un des grands rendez-vous musicaux d’Europe du Nord, dans le cadre magnifique d’une presqu’�le de la vieille ville d’Oslo. L’�dition 2013 �tait all�chante. Les prestigieuses t�tes d’affiches internationales (Blur, Cat Power, Kraftwerk, Slayer, Beach House, Wu-Tang Clan) y ont c�toy� les jeunes espoirs nordiques, entre rock, rap, folk et �lectro. Ce festival atypique, v�ritable �v�nement militant, propose aussi des produits bio et locaux et utilise les �nergies renouvelables et le recyclage.
    ~ arte.tv
    Скачать .torrent

    Скачать торрент-файл бесплатно и на максимальной скорости!

    Как скачивать? · Что такое торрент? · Рейтинг и ограничения

    !ВНИМАНИЕ!
    Сайт не распространяет и не хранит электронные версии произведений, а занимается лишь лишь предоставлением доступа к создаваемому пользователями каталогу ссылок на торрент-файлы, которые содержат только списки хеш-сумм, убедительная просьба с жалобами обращаться напрямую к пользователю. Файлы для обмена на трекере предоставлены пользователями сайта, и администрация не несёт ответственности за их содержание. Просьба не заливать файлы, защищенные авторскими правами, а также файлы нелегального содержания!

    [Профиль] [ЛС]
    Показать сообщения:    
    Ответить на тему

    Текущее время: Сегодня, в 14:40

    Часовой пояс: GMT + 2



    Вы не можете начинать темы
    Вы не можете отвечать на сообщения
    Вы не можете редактировать свои сообщения
    Вы не можете удалять свои сообщения
    Вы не можете голосовать в опросах
    Вы не можете прикреплять файлы к сообщениям
    Вы не можете скачивать файлы