BitTorrentTracker PerecTracker.org
BitTorrentTracker PerecTracker.org
    
Регистрация  ·  Вход
 
 · 
Забыли пароль?

  • БИ-2 - "Квартирник" в театре «Содружество актеров Таганки»" (17.05.2013) (Full HD) [2014, Rock, HDCam]

    Ответить на тему
     
    Автор Сообщение

    Columb

    Создавать темы 31-Май-2014 08:04

           

    [Цитировать]

    БИ-2 - "Квартирник" в театре «Содружество актеров Таганки»" (17.05.2013) (Full HD)
    Жанр: Rock
    Продолжительность: 01:32:03
    Год выпуска: 2014
    Описание: В данной раздаче представлена запись одного из «Квартирников» БИ-2 — первого московского акустического концерта, который состоялся в мае в театре «Содружество актеров Таганки». Это второй из 3-х концертов (акустический), представленных в новом тройном DVD группы. В данной раздаче представлена Full HD-версия концерта.
    Треклист:
    01. Варвара
    02. Девушки
    03. Ёлочный сок
    04. И корабль плывёт
    05 Скользкие улицы
    06. Молитва
    07. Держаться за воздух
    08. Научи меня быть счастливым
    09. Теряю голову
    10. Серебро
    11. Реки любви
    12. Достучаться до небес
    13. Smile
    14. Шамбала
    15. Ангелы
    16. Моя любовь
    17. Мой рок-н-ролл (+ представление участников группы)
    Качество: HDCam
    Контейнер: OGG
    Видео кодек: AVC
    Аудио кодек: AAC
    Видео: AVC, 1920 X 1080, 12800 kbps, 25 fps
    Аудио: AAC, 317 kbps, 48 kHz, 2 Ch

    Отчёт MediaInfo / BDInfo

    ОбщееПолное имя : E:\МузоНчиК\ВидеО\БИ-2 - Квартирник в театре «Содружество актёров Таганки» (17.05.2013).oggФормат : MPEG-4Профиль формата : Base Media / Version 2Идентификатор кодека : mp42Размер файла : 8,47 ГбайтПродолжительность : 1 ч. 32 м.Режим общего битрейта : ПеременныйОбщий поток : 13,2 Мбит/секДата кодирования : UTC 2014-05-28 08:49:52Дата пометки : UTC 2014-05-28 09:00:14©TIM : 01:00:00:00©TSC : 25©TSZ : 1
    ВидеоИдентификатор : 1Формат : AVCФормат/Информация : Advanced Video CodecПрофиль формата : High@L4.2Параметр CABAC формата : ДаПараметр ReFrames формата : 3 кадраИдентификатор кодека : avc1Идентификатор кодека/Информация : Advanced Video CodingПродолжительность : 1 ч. 32 м.Битрейт : 12,8 Мбит/секШирина : 1920 пикселейВысота : 1080 пикселейСоотношение сторон : 16:9Режим частоты кадров : ПеременныйЧастота кадров : 25,000 кадров/секМинимальная частота кадров : 25,000 кадров/секМаксимальная частота кадров : 25,025 кадров/секСтандарт вещания : PALЦветовое пространство : YUVСубдискретизация насыщенности : 4:2:0Битовая глубина : 8 битТип развёртки : ПрогрессивнаяБит/(Пиксели*Кадры) : 0.248Размер потока : 8,26 Гбайт (98%)Язык : EnglishДата кодирования : UTC 2014-05-28 08:49:52Дата пометки : UTC 2014-05-28 08:49:52mdhd_Duration : 5522760Основные цвета : BT.709Характеристики трансфера : BT.709Коэффициенты матрицы : BT.709
    АудиоИдентификатор : 2Формат : AACФормат/Информация : Advanced Audio CodecПрофиль формата : LCИдентификатор кодека : 40Продолжительность : 1 ч. 32 м.Продолжительность оригинала : 1 ч. 32 м.Вид битрейта : ПеременныйБитрейт : 317 Кбит/секМаксимальный битрейт : 418 Кбит/секКаналы : 2 каналаРасположение каналов : Front: L RЧастота : 48,0 КГцМетод сжатия : С потерямиРазмер потока : 209 Мбайт (2%)Размер потока оригинала : 209 Мбайт (2%)Язык : EnglishДата кодирования : UTC 2014-05-28 08:49:52Дата пометки : UTC 2014-05-28 08:49:52mdhd_Duration : 5522795

    Скриншоты

    Скачать .torrent

    Скачать торрент-файл бесплатно и на максимальной скорости!

    Как скачивать? · Что такое торрент? · Рейтинг и ограничения

    !ВНИМАНИЕ!
    Сайт не распространяет и не хранит электронные версии произведений, а занимается лишь лишь предоставлением доступа к создаваемому пользователями каталогу ссылок на торрент-файлы, которые содержат только списки хеш-сумм, убедительная просьба с жалобами обращаться напрямую к пользователю. Файлы для обмена на трекере предоставлены пользователями сайта, и администрация не несёт ответственности за их содержание. Просьба не заливать файлы, защищенные авторскими правами, а также файлы нелегального содержания!

    [Профиль] [ЛС]
    Показать сообщения:    
    Ответить на тему

    Текущее время: Сегодня, в 22:19

    Часовой пояс: GMT + 2



    Вы не можете начинать темы
    Вы не можете отвечать на сообщения
    Вы не можете редактировать свои сообщения
    Вы не можете удалять свои сообщения
    Вы не можете голосовать в опросах
    Вы не можете прикреплять файлы к сообщениям
    Вы не можете скачивать файлы