BitTorrentTracker PerecTracker.org
BitTorrentTracker PerecTracker.org
    
Регистрация  ·  Вход
 
 · 
Забыли пароль?

  • Queen - Rock Montreal [2007, Rock, BDRip 720p]

    Ответить на тему
     
    Автор Сообщение

    Columb

    Создавать темы 31-Май-2014 08:03

           

    [Цитировать]

    Queen - Rock Montreal
    Жанр: Rock
    Место и дата записи концерта: Montreal Forum, Montreal, Canada – 24 и 25 ноября 1981 г.
    Год релиза издания: 2007
    Продолжительность: 01:35:10
    Источник: HDBits (NTb)
    Треклист:
    [01] We Will Rock You (Fast)
    [02] Let Me Entertain You
    [03] Play The Game
    [04] Somebody To Love
    [05] Killer Queen
    [06] I'm In Love With My Car
    [07] Get Down, Make Love
    [08] Save Me
    [09] Now I'm Here
    [10] Dragon Attack
    [11] Now I'm Here (Reprise)
    [12] Love Of My Life
    [13] Under Pressure
    [14] Keep Yourself Alive
    [15] Drum & Timpani Solo
    [16] Guitar Solo
    [17] Crazy Little Thing Called Love
    [18] Jailhouse Rock
    [19] Bohemian Rhapsody
    [20] Tie Your Mother Down
    [21] Another One Bites The Dust
    [22] Sheer Heart Attack
    [23] We Will Rock You
    [24] We Are The Champions
    [25] God Save The Queen
    Качество: BDRip 720p
    Контейнер: MKV
    Видеокодек: MPEG-4 AVC
    Аудиокодек: DTS | FLAC | AC-3
    Видео: MPEG-4 AVC | 9658 kbps | 1280x720 | 23.976 fps | 16:9
    Аудио: DTS | 5.1 | 48 kHz | 1509 kbps | 24-bit
    Аудио: FLAC | 2.0 | 48 kHz | 1810 kbps | 24-bit
    Аудио: AC-3 | 2.0 | 48 kHz | 192 kbps | 16-bit (Commentary)
    Субтитры: SRT | English (Commentary)

    x264 Log

    x264 [info]: frame I:759 Avg QP:15.31 size:130129x264 [info]: frame P:31014 Avg QP:16.36 size: 72009x264 [info]: frame B:105147 Avg QP:17.26 size: 43394x264 [info]: consecutive B-frames: 1.2% 2.5% 5.2% 44.4% 11.1% 30.3% 1.6% 2.2% 1.5%x264 [info]: encoded 136920 frames, 4.591 fps, 9658.72 kb/s, 6575.4 MB

    MediaInfoXP

    GeneralUnique ID : 174638439348775023374432302552626946400 (0x836223D59DF07ECEB1B112CCA84AE160)Complete name : E:\Queen.Rock.Montreal.1981.720p.BluRay.DTS.x264-NTb.mkvFormat : MatroskaFormat version : Version 4 / Version 2File size : 8.76 GiBDuration : 1h 35mnOverall bit rate mode : VariableOverall bit rate : 13.2 MbpsEncoded date : UTC 2013-09-21 00:52:53Writing application : mkvmerge v6.4.1 ('Omega Point') built on Sep 16 2013 22:05:10Writing library : libebml v1.3.0 + libmatroska v1.4.1
    VideoID : 1Format : AVCFormat/Info : Advanced Video CodecFormat profile : High@L4.1Format settings, CABAC : YesFormat settings, ReFrames : 9 framesCodec ID : V_MPEG4/ISO/AVCDuration : 1h 35mnWidth : 1 280 pixelsHeight : 720 pixelsDisplay aspect ratio : 16:9Frame rate mode : ConstantFrame rate : 23.976 fpsColor space : YUVChroma subsampling : 4:2:0Bit depth : 8 bitsScan type : ProgressiveWriting library : x264 core 138 r2359+704+48 3f879a0 tMod [8-bit@4:2:0 X86]Encoding settings : cabac=1 / ref=9 / deblock=1:-3:-3 / analyse=0x3:0x113 / me=umh / subme=10 / psy=1 / fade_compensate=0.00 / psy_rd=1.08:0.00 / mixed_ref=1 / me_range=32 / chroma_me=1 / trellis=2 / 8x8dct=1 / cqm=0 / deadzone=21,11 / fast_pskip=0 / chroma_qp_offset=-2 / threads=6 / lookahead_threads=1 / sliced_threads=0 / nr=0 / decimate=0 / interlaced=0 / bluray_compat=0 / constrained_intra=0 / fgo=0 / bframes=8 / b_pyramid=2 / b_adapt=2 / b_bias=0 / direct=3 / weightb=1 / open_gop=0 / weightp=2 / keyint=250 / keyint_min=23 / scenecut=40 / intra_refresh=0 / rc_lookahead=60 / rc=crf / mbtree=0 / crf=17.5000 / qcomp=0.70 / qpmin=0:0:0 / qpmax=69:69:69 / qpstep=4 / vbv_maxrate=50000 / vbv_bufsize=62500 / crf_max=0.0 / nal_hrd=none / ip_ratio=1.20 / pb_ratio=1.10 / aq=1:0.80 / aq-sensitivity=10.00 / aq-factor=1.00:1.00:1.00 / aq2=0 / aq3=0Language : EnglishDefault : YesForced : No
    Audio #1ID : 2Format : DTSFormat/Info : Digital Theater SystemsMode : 16Format settings, Endianness : BigCodec ID : A_DTSDuration : 1h 35mnBit rate mode : ConstantBit rate : 1 509 KbpsChannel(s) : 6 channelsChannel positions : Front: L C R, Side: L R, LFESampling rate : 48.0 KHzBit depth : 24 bitsCompression mode : LossyStream size : 1.00 GiB (11%)Language : EnglishDefault : YesForced : No
    Audio #2ID : 3Format : FLACFormat/Info : Free Lossless Audio CodecCodec ID : A_FLACDuration : 1h 35mnBit rate mode : VariableChannel(s) : 2 channelsSampling rate : 48.0 KHzBit depth : 24 bitsWriting library : libFLAC 1.2.1 (UTC 2007-09-17)Language : EnglishDefault : NoForced : No
    Audio #3ID : 4Format : AC-3Format/Info : Audio Coding 3Mode extension : CM (complete main)Format settings, Endianness : BigCodec ID : A_AC3Duration : 1h 35mnBit rate mode : ConstantBit rate : 192 KbpsChannel(s) : 2 channelsChannel positions : Front: L RSampling rate : 48.0 KHzBit depth : 16 bitsCompression mode : LossyStream size : 131 MiB (1%)Title : CommentaryLanguage : EnglishDefault : NoForced : No
    TextID : 5Format : UTF-8Codec ID : S_TEXT/UTF8Codec ID/Info : UTF-8 Plain TextTitle : Commentary SubsLanguage : EnglishDefault : NoForced : No
    Menu00:00:00.000 : en:Intro00:02:04.791 : en:We Will Rock You(Fast)00:05:11.102 : en:Let Me Entertain You00:08:14.452 : en:Play the Game00:12:08.978 : en:Somebody to Love00:19:47.937 : en:Killer Queen00:21:48.724 : en:I'm in Love with My Car00:23:51.764 : en:Get Down, Make Love00:28:45.432 : en:Save Me00:32:53.138 : en:Now I'm Here00:38:23.426 : en:Dragon Attack00:41:38.579 : en:Now I'm Here(Reprise)00:43:39.575 : en:Love of My Live00:47:24.675 : en:Under Pressure00:51:06.981 : en:Keep Yourself Alive00:54:40.235 : en:Drum and Timpani Solo00:57:42.334 : en:Guitar Solo01:03:06.366 : en:Crazy Little Thing Called Love01:07:23.456 : en:Jailhouse Rock01:10:09.914 : en:Bohemian Rhapsody01:15:40.911 : en:Tie Your Mother Down01:19:29.848 : en:Another One Bites the Dust01:23:32.007 : en:Sheer Heart Attack01:27:26.992 : en:We Will Rock You01:29:38.123 : en:We Are the Champions01:33:04.162 : en:God Save the Queen

    Скриншоты

    Скачать .torrent

    Скачать торрент-файл бесплатно и на максимальной скорости!

    Как скачивать? · Что такое торрент? · Рейтинг и ограничения

    !ВНИМАНИЕ!
    Сайт не распространяет и не хранит электронные версии произведений, а занимается лишь лишь предоставлением доступа к создаваемому пользователями каталогу ссылок на торрент-файлы, которые содержат только списки хеш-сумм, убедительная просьба с жалобами обращаться напрямую к пользователю. Файлы для обмена на трекере предоставлены пользователями сайта, и администрация не несёт ответственности за их содержание. Просьба не заливать файлы, защищенные авторскими правами, а также файлы нелегального содержания!

    [Профиль] [ЛС]
    Показать сообщения:    
    Ответить на тему

    Текущее время: Сегодня, в 10:13

    Часовой пояс: GMT + 2



    Вы не можете начинать темы
    Вы не можете отвечать на сообщения
    Вы не можете редактировать свои сообщения
    Вы не можете удалять свои сообщения
    Вы не можете голосовать в опросах
    Вы не можете прикреплять файлы к сообщениям
    Вы не можете скачивать файлы