BitTorrentTracker PerecTracker.org
BitTorrentTracker PerecTracker.org
    
Регистрация  ·  Вход
 
 · 
Забыли пароль?

  • БИ-2 - Live in "Stadium Live" (15.03.2013) (Full HD) [2014, Rock, HDCam]

    Ответить на тему
     
    Автор Сообщение

    Columb

    Создавать темы 31-Май-2014 07:59

           

    [Цитировать]

    БИ-2 - Live in "Stadium Live" (15.03.2013) (Full HD)
    Жанр: Rock
    Продолжительность: 02:05:13
    Год выпуска: 2014
    Описание: Представленный в раздаче концерт был отыгран и записан в марте 2013 года в московском клубе Stadium Live — это было финальное шоу масштабного и мощнейшего по энергетике Spirit Tour`a, охватившего более 70 городов. Это первый из 3-х концертов (электрический), представленных в новом тройном DVD группы. В данной раздаче представлена Full HD-версия концерта.
    Треклист:
    01. Оптимист
    02. Дурочка
    03. Девушки
    04. Революция
    05. Молитва
    06. Вечная призрачная встречная
    07. Реки любви
    08. Серебро
    09. Блеф
    10. Заноза
    11. 1000 миль
    12. Безвоздушная тревога
    13. Скользкие улицы (акустика)
    14. Муза
    15. Варвара
    16. Моя любовь
    17. Мой рок-н-ролл (+ поппури песен русского рока от Шуры и представление участников группы)
    18. Bowie
    19. Последний герой
    20. Полковнику никто не пишет
    21. Её глаза
    Качество: HDCam
    Контейнер: OGG
    Видео кодек: AVC
    Аудио кодек: AAC
    Видео: AVC, 1920 X 1080, 9975 kbps, 25 fps
    Аудио: AAC, 317 kbps, 48 kHz, 2 Ch

    Log MediaInfo

    ОбщееПолное имя : E:\МузоНчиК\ВидеО\БИ-2 - Live in Stadium Live (15.03.2013) (Full HD).oggФормат : MPEG-4Профиль формата : Base Media / Version 2Идентификатор кодека : mp42Размер файла : 9,01 ГбайтПродолжительность : 2 ч. 5 м.Режим общего битрейта : ПеременныйОбщий поток : 10,3 Мбит/секДата кодирования : UTC 2014-05-28 11:50:57Дата пометки : UTC 2014-05-28 12:09:57©TIM : 01:00:00:00©TSC : 25©TSZ : 1
    ВидеоИдентификатор : 1Формат : AVCФормат/Информация : Advanced Video CodecПрофиль формата : High@L4.2Параметр CABAC формата : ДаПараметр ReFrames формата : 3 кадраИдентификатор кодека : avc1Идентификатор кодека/Информация : Advanced Video CodingПродолжительность : 2 ч. 5 м.Битрейт : 9975 Кбит/секШирина : 1920 пикселейВысота : 1080 пикселейСоотношение сторон : 16:9Режим частоты кадров : ПеременныйЧастота кадров : 25,000 кадров/секМинимальная частота кадров : 25,000 кадров/секМаксимальная частота кадров : 25,025 кадров/секСтандарт вещания : PALЦветовое пространство : YUVСубдискретизация насыщенности : 4:2:0Битовая глубина : 8 битТип развёртки : ПрогрессивнаяБит/(Пиксели*Кадры) : 0.192Размер потока : 8,73 Гбайт (97%)Язык : EnglishДата кодирования : UTC 2014-05-28 11:50:58Дата пометки : UTC 2014-05-28 11:50:58mdhd_Duration : 7514160Основные цвета : BT.709Характеристики трансфера : BT.709Коэффициенты матрицы : BT.709
    АудиоИдентификатор : 2Формат : AACФормат/Информация : Advanced Audio CodecПрофиль формата : LCИдентификатор кодека : 40Продолжительность : 2 ч. 5 м.Продолжительность оригинала : 2 ч. 5 м.Вид битрейта : ПеременныйБитрейт : 317 Кбит/секМаксимальный битрейт : 416 Кбит/секКаналы : 2 каналаРасположение каналов : Front: L RЧастота : 48,0 КГцМетод сжатия : С потерямиРазмер потока : 284 Мбайт (3%)Размер потока оригинала : 284 Мбайт (3%)Язык : EnglishДата кодирования : UTC 2014-05-28 11:50:58Дата пометки : UTC 2014-05-28 11:50:58mdhd_Duration : 7514198

    Скриншоты

    Скачать .torrent

    Скачать торрент-файл бесплатно и на максимальной скорости!

    Как скачивать? · Что такое торрент? · Рейтинг и ограничения

    !ВНИМАНИЕ!
    Сайт не распространяет и не хранит электронные версии произведений, а занимается лишь лишь предоставлением доступа к создаваемому пользователями каталогу ссылок на торрент-файлы, которые содержат только списки хеш-сумм, убедительная просьба с жалобами обращаться напрямую к пользователю. Файлы для обмена на трекере предоставлены пользователями сайта, и администрация не несёт ответственности за их содержание. Просьба не заливать файлы, защищенные авторскими правами, а также файлы нелегального содержания!

    [Профиль] [ЛС]
    Показать сообщения:    
    Ответить на тему

    Текущее время: Сегодня, в 19:53

    Часовой пояс: GMT + 2



    Вы не можете начинать темы
    Вы не можете отвечать на сообщения
    Вы не можете редактировать свои сообщения
    Вы не можете удалять свои сообщения
    Вы не можете голосовать в опросах
    Вы не можете прикреплять файлы к сообщениям
    Вы не можете скачивать файлы