BitTorrentTracker PerecTracker.org
BitTorrentTracker PerecTracker.org
    
Регистрация  ·  Вход
 
 · 
Забыли пароль?

  • Ольга Кормухина - Путь / Концерт ко Дню пограничника (Эфир 28.05.2014) [2014, Pop, DVB] [ТК «Звезда»]

    Ответить на тему
     
    Автор Сообщение

    Columb

    Создавать темы 31-Май-2014 07:56

           

    [Цитировать]

    Ольга Кормухина - Путь / Концерт ко Дню пограничника (Эфир 28.05.2014)
    Год выпуска: 2014
    Жанр: Pop
    Продолжительность: 00:05:27
    Перевод: Не требуется
    Русские субтитры: нет
    Выпущено: Россия, ТК «Звезда».
    Описание: 28 мая чествовать ветеранов и действующих стражей границы, соберутся лучшие артисты и коллективы нашей страны. По сложившейся доброй традиции пограничников поздравят представители администрации президента, казачества, перед зрителями выступят творческие коллективы и популярные артисты.
    На этом концерте, неподражаемая, Ольга Кормухина, исполнила песню «Путь». (музыка и стихи - Сергей Савватеев)
    Доп. информация: Рип чистый. Без посторонних надписей. Выкладывается как есть.

    Качество: DVB
    Контейнер: MPEG-PS
    Видео кодек: MPEG2
    Аудио кодек: MPEG1
    Видео: MPEG2 704x576 (4:3) 25.00fps 3 349 Kbps, 0.330 bit/pixel
    Аудио: MPEG1 44100Hz stereo 192 Кбит/сек

    Скриншоты

    Скринлист

    Отчёт MediaInfo / BDInfo

    Общее
    Полное имя : F:\Раздачи\Ольга Кормухина\Ольга Кормухина - Путь (2014, DVB, Концерт ко Дню пограничника, 28.05.2014, ТК Звезда) (by Nokia5150).mpg
    Формат : MPEG-PS
    Размер файла : 141 Мбайт
    Продолжительность : 5 м. 27 с.
    Режим общего битрейта : Переменный
    Общий поток : 3613 Кбит/сек
    Видео
    Идентификатор : 224 (0xE0)
    Формат : MPEG Video
    Версия формата : Version 2
    Профиль формата : Main@Main
    Параметр BVOP формата : Нет
    Параметр матрицы формата : По умолчанию
    Параметр GOP формата : N=12
    Продолжительность : 5 м. 27 с.
    Вид битрейта : Переменный
    Битрейт : 3349 Кбит/сек
    Максимальный битрейт : 9000 Кбит/сек
    Ширина : 704 пикселя
    Высота : 576 пикселей
    Соотношение сторон : 4:3
    Частота кадров : 25,000 кадров/сек
    Стандарт вещания : PAL
    Цветовое пространство : YUV
    Субдискретизация насыщенности : 4:2:0
    Битовая глубина : 8 бит
    Тип развёртки : Прогрессивная
    Метод сжатия : С потерями
    Бит/(Пиксели*Кадры) : 0.330
    Временной код первого кадра : 00:00:00:00
    Оригинал временного кода : Group of pictures header
    Размер потока : 131 Мбайт (93%)
    Аудио
    Идентификатор : 192 (0xC0)
    Формат : MPEG Audio
    Версия формата : Version 1
    Профиль формата : Layer 2
    Продолжительность : 5 м. 27 с.
    Вид битрейта : Постоянный
    Битрейт : 192 Кбит/сек
    Каналы : 2 канала
    Частота : 44,1 КГц
    Метод сжатия : С потерями
    Размер потока : 7,49 Мбайт (5%)

    Скачать .torrent

    Скачать торрент-файл бесплатно и на максимальной скорости!

    Как скачивать? · Что такое торрент? · Рейтинг и ограничения

    !ВНИМАНИЕ!
    Сайт не распространяет и не хранит электронные версии произведений, а занимается лишь лишь предоставлением доступа к создаваемому пользователями каталогу ссылок на торрент-файлы, которые содержат только списки хеш-сумм, убедительная просьба с жалобами обращаться напрямую к пользователю. Файлы для обмена на трекере предоставлены пользователями сайта, и администрация не несёт ответственности за их содержание. Просьба не заливать файлы, защищенные авторскими правами, а также файлы нелегального содержания!

    [Профиль] [ЛС]
    Показать сообщения:    
    Ответить на тему

    Текущее время: Сегодня, в 15:40

    Часовой пояс: GMT + 2



    Вы не можете начинать темы
    Вы не можете отвечать на сообщения
    Вы не можете редактировать свои сообщения
    Вы не можете удалять свои сообщения
    Вы не можете голосовать в опросах
    Вы не можете прикреплять файлы к сообщениям
    Вы не можете скачивать файлы