BitTorrentTracker PerecTracker.org
BitTorrentTracker PerecTracker.org
    
Регистрация  ·  Вход
 
 · 
Забыли пароль?

  • (Drum n Bass, Dub, Downtempo, Ambient) VA - Asian Travels - 2000, FLAC (tracks+.cue), lossless

    Ответить на тему
     
    Автор Сообщение

    Columb

    Создавать темы 31-Май-2014 07:51

           

    [Цитировать]

    VA - Asian Travels
    Жанр: Drum n Bass, Dub, Downtempo, Ambient
    Страна-производитель диска: USA
    Год издания: 2000
    Издатель (лейбл): Six Degrees Travel Series
    Страна: USA
    Аудиокодек: FLAC (*.flac)
    Тип рипа: tracks+.cue
    Битрейт аудио: lossless
    Продолжительность: 01:05:33
    Источник (релизер): What.cd
    Наличие сканов в содержимом раздачи: нет
    Треклист:
    01. Ja Sha Taan (Transglobal Underground Karachi Deathcult Mix) - Fun da Mental
    02. Kese Kese - The Zindegi Meera Mix: Love Dreams - DJ Cheb I Sabbah
    03. Currents - Kingsuk Biswas
    04. Ghoom Charakhana (Talvin Singh 'Future Sound Of India' Mix) - Najma
    05. Sweet Pain (Joi Remix) - Nusrat Fateh Ali Khan & Michael Brook
    06. Delirium (State Of Bengal Delhi Rias Mix) - Euphoria
    07. Harvey & the Old Ones (Single Mix) - Banco de Gaia
    08. Soft Music Under Stars - Fila Brazilia
    09. A Different Space (Radio Edit) - Bob Holroyd
    10. All for You - Shankar

    Лог создания рипа

    X Lossless Decoder version 20110821 (136.1)
    XLD extraction logfile from 2011-09-25 16:25:30 -0400
    Various Artists / Six Degrees - Asian Travels
    Used drive : MATSHITA CD-RW CW-8221 (revision GA0J)
    Ripper mode : XLD Secure RipperDisable audio cache : OK for the drive with a cache less than 1375KiBMake use of C2 pointers : NORead offset correction : 102Max retry count : 100Gap status : Analyzed, Appended (except HTOA)
    TOC of the extracted CD Track | Start | Length | Start sector | End sector --------------------------------------------------------- 1 | 00:00:00 | 05:55:35 | 0 | 26659 2 | 05:55:35 | 05:42:22 | 26660 | 52331 3 | 11:37:57 | 05:52:45 | 52332 | 78776 4 | 17:30:27 | 06:50:33 | 78777 | 109559 5 | 24:20:60 | 06:13:62 | 109560 | 137596 6 | 30:34:47 | 07:07:10 | 137597 | 169631 7 | 37:41:57 | 05:20:48 | 169632 | 193679 8 | 43:02:30 | 10:08:35 | 193680 | 239314 9 | 53:10:65 | 05:48:27 | 239315 | 265441 10 | 58:59:17 | 06:34:13 | 265442 | 295004
    List of alternate offset correction values # | Absolute | Relative | Confidence ------------------------------------------ 1 | -562 | -664 | 5
    AccurateRip Summary Track 01 : OK (confidence 11) Track 02 : OK (confidence 11) Track 03 : OK (confidence 11) Track 04 : OK (confidence 11) Track 05 : OK (confidence 11) Track 06 : OK (confidence 11) Track 07 : OK (confidence 11) Track 08 : OK (confidence 11) Track 09 : OK (confidence 10) Track 10 : OK (confidence 11) ->All tracks accurately ripped.
    All Tracks Album gain : -6.12 dB Peak : 1.000000 Statistics Read error : 0 Jitter error (maybe fixed) : 0 Retry sector count : 0 Damaged sector count : 0
    Track 01 Filename : /Users/macbook/Desktop/rips/Various Artists - Asian Travels - Six Degrees Records FLAC/01 - Ja Sha Taan (Transglobal Underground Karachi DeathcultMix).flac Pre-gap length : 00:02:00
    Track gain : -9.00 dB Peak : 1.000000 CRC32 hash (test run) : 15D3B997 CRC32 hash : 15D3B997 CRC32 hash (skip zero) : F8DA507A AccurateRip signature : 88D6237A ->Accurately ripped! (confidence 11) Statistics Read error : 0 Jitter error (maybe fixed) : 0 Retry sector count : 0 Damaged sector count : 0
    Track 02 Filename : /Users/macbook/Desktop/rips/Various Artists - Asian Travels - Six Degrees Records FLAC/02 - Kese Kese.flac
    Track gain : -5.33 dB Peak : 0.999969 CRC32 hash (test run) : C9B126E2 CRC32 hash : C9B126E2 CRC32 hash (skip zero) : A73C9408 AccurateRip signature : 8103A53E ->Accurately ripped! (confidence 11) Statistics Read error : 0 Jitter error (maybe fixed) : 0 Retry sector count : 0 Damaged sector count : 0
    Track 03 Filename : /Users/macbook/Desktop/rips/Various Artists - Asian Travels - Six Degrees Records FLAC/03 - Currents.flac Pre-gap length : 00:01:25
    Track gain : -5.41 dB Peak : 0.992188 CRC32 hash (test run) : 1AD18591 CRC32 hash : 1AD18591 CRC32 hash (skip zero) : 3C120D47 AccurateRip signature : 6B8B7B60 ->Accurately ripped! (confidence 11) Statistics Read error : 0 Jitter error (maybe fixed) : 0 Retry sector count : 0 Damaged sector count : 0
    Track 04 Filename : /Users/macbook/Desktop/rips/Various Artists - Asian Travels - Six Degrees Records FLAC/04 - Ghoom Charakhana (Talvin Singh 'Future Sound of India'Mix).flac
    Track gain : -5.97 dB Peak : 0.999207 CRC32 hash (test run) : C9FFDF57 CRC32 hash : C9FFDF57 CRC32 hash (skip zero) : 978C65B7 AccurateRip signature : B9D2470E ->Accurately ripped! (confidence 11) Statistics Read error : 0 Jitter error (maybe fixed) : 0 Retry sector count : 0 Damaged sector count : 0
    Track 05 Filename : /Users/macbook/Desktop/rips/Various Artists - Asian Travels - Six Degrees Records FLAC/05 - Sweet Pain (Joi Remix).flac Pre-gap length : 00:01:30
    Track gain : -4.80 dB Peak : 0.979736 CRC32 hash (test run) : AA6EFA07 CRC32 hash : AA6EFA07 CRC32 hash (skip zero) : 861E3EEF AccurateRip signature : FC771F97 ->Accurately ripped! (confidence 11) Statistics Read error : 0 Jitter error (maybe fixed) : 0 Retry sector count : 0 Damaged sector count : 0
    Track 06 Filename : /Users/macbook/Desktop/rips/Various Artists - Asian Travels - Six Degrees Records FLAC/06 - Delirium (State of Bengal Delhi Rias Mix).flac
    Track gain : -6.08 dB Peak : 0.999939 CRC32 hash (test run) : AE1185CB CRC32 hash : AE1185CB CRC32 hash (skip zero) : ED979793 AccurateRip signature : 17808B21 ->Accurately ripped! (confidence 11) Statistics Read error : 0 Jitter error (maybe fixed) : 0 Retry sector count : 0 Damaged sector count : 0
    Track 07 Filename : /Users/macbook/Desktop/rips/Various Artists - Asian Travels - Six Degrees Records FLAC/07 - Harvey and the Old Ones (Single Mix).flac
    Track gain : -3.23 dB Peak : 0.999939 CRC32 hash (test run) : 2B73F7CE CRC32 hash : 2B73F7CE CRC32 hash (skip zero) : 7214AD2F AccurateRip signature : 2494FA1E ->Accurately ripped! (confidence 11) Statistics Read error : 0 Jitter error (maybe fixed) : 0 Retry sector count : 0 Damaged sector count : 0
    Track 08 Filename : /Users/macbook/Desktop/rips/Various Artists - Asian Travels - Six Degrees Records FLAC/08 - Soft Music Under Stars.flac
    Track gain : -4.09 dB Peak : 0.999939 CRC32 hash (test run) : C60A1D77 CRC32 hash : C60A1D77 CRC32 hash (skip zero) : A64205DE AccurateRip signature : A25AA8E9 ->Accurately ripped! (confidence 11) Statistics Read error : 0 Jitter error (maybe fixed) : 0 Retry sector count : 0 Damaged sector count : 0
    Track 09 Filename : /Users/macbook/Desktop/rips/Various Artists - Asian Travels - Six Degrees Records FLAC/09 - A Different Space (Radio Edit).flac Pre-gap length : 00:01:25
    Track gain : -3.65 dB Peak : 0.999939 CRC32 hash (test run) : 781D40F3 CRC32 hash : 781D40F3 CRC32 hash (skip zero) : EDA2570A AccurateRip signature : BC2E8C01 ->Accurately ripped! (confidence 10) Statistics Read error : 0 Jitter error (maybe fixed) : 0 Retry sector count : 0 Damaged sector count : 0
    Track 10 Filename : /Users/macbook/Desktop/rips/Various Artists - Asian Travels - Six Degrees Records FLAC/10 - All For You.flac
    Track gain : -6.08 dB Peak : 0.957214 CRC32 hash (test run) : B7E19233 CRC32 hash : B7E19233 CRC32 hash (skip zero) : B32E5ECA AccurateRip signature : 044908BC ->Accurately ripped! (confidence 11) Statistics Read error : 0 Jitter error (maybe fixed) : 0 Retry sector count : 0 Damaged sector count : 0
    No errors occurred
    End of status report

    Содержание индексной карты (.CUE)

    TITLE "Six Degrees - Asian Travels"REM GENRE "Electronic"REM DATE "2000"REM DISCID 8C0F5D0AFILE "01 - Ja Sha Taan (Transglobal Underground Karachi DeathcultMix).wav" WAVE TRACK 01 AUDIO TITLE "Ja Sha Taan (Transglobal Underground Karachi DeathcultMix)" PERFORMER "Fun Da Mental" INDEX 01 00:00:00FILE "02 - Kese Kese.wav" WAVE TRACK 02 AUDIO TITLE "Kese Kese" PERFORMER "dj Cheb i Sabbah" INDEX 01 00:00:00FILE "03 - Currents.wav" WAVE TRACK 03 AUDIO TITLE "Currents" PERFORMER "Kingsuk Biswas" INDEX 01 00:00:00FILE "04 - Ghoom Charakhana (Talvin Singh 'Future Sound of India'Mix).wav" WAVE TRACK 04 AUDIO TITLE "Ghoom Charakhana (Talvin Singh 'Future Sound of India'Mix)" PERFORMER "Najma" INDEX 01 00:00:00FILE "05 - Sweet Pain (Joi Remix).wav" WAVE TRACK 05 AUDIO TITLE "Sweet Pain (Joi Remix)" PERFORMER "Nusrat Fateh Ali Khan & Michael Brook" INDEX 01 00:00:00FILE "06 - Delirium (State of Bengal Delhi Rias Mix).wav" WAVE TRACK 06 AUDIO TITLE "Delirium (State of Bengal Delhi Rias Mix)" PERFORMER "Euphoria" INDEX 01 00:00:00FILE "07 - Harvey and the Old Ones (Single Mix).wav" WAVE TRACK 07 AUDIO TITLE "Harvey and the Old Ones (Single Mix)" PERFORMER "Banco de Gaia" INDEX 01 00:00:00FILE "08 - Soft Music Under Stars.wav" WAVE TRACK 08 AUDIO TITLE "Soft Music Under Stars" PERFORMER "Fila Brazillia" INDEX 01 00:00:00FILE "09 - A Different Space (Radio Edit).wav" WAVE TRACK 09 AUDIO TITLE "A Different Space (Radio Edit)" PERFORMER "Bob Holroyd" INDEX 00 10:07:10FILE "10 - All For You.wav" WAVE TRACK 10 AUDIO TITLE "All For You" PERFORMER "Shankar" INDEX 01 00:00:00
    Скачать .torrent

    Скачать торрент-файл бесплатно и на максимальной скорости!

    Как скачивать? · Что такое торрент? · Рейтинг и ограничения

    !ВНИМАНИЕ!
    Сайт не распространяет и не хранит электронные версии произведений, а занимается лишь лишь предоставлением доступа к создаваемому пользователями каталогу ссылок на торрент-файлы, которые содержат только списки хеш-сумм, убедительная просьба с жалобами обращаться напрямую к пользователю. Файлы для обмена на трекере предоставлены пользователями сайта, и администрация не несёт ответственности за их содержание. Просьба не заливать файлы, защищенные авторскими правами, а также файлы нелегального содержания!

    [Профиль] [ЛС]
    Показать сообщения:    
    Ответить на тему

    Текущее время: Сегодня, в 21:52

    Часовой пояс: GMT + 2



    Вы не можете начинать темы
    Вы не можете отвечать на сообщения
    Вы не можете редактировать свои сообщения
    Вы не можете удалять свои сообщения
    Вы не можете голосовать в опросах
    Вы не можете прикреплять файлы к сообщениям
    Вы не можете скачивать файлы