BitTorrentTracker PerecTracker.org
BitTorrentTracker PerecTracker.org
    
Регистрация  ·  Вход
 
 · 
Забыли пароль?

  • (House, Tech House, Deep House) [CD] VA - About: Berlin Vol. 4 - 2013 (2CD), FLAC (tracks+.cue), lossless

    Ответить на тему
     
    Автор Сообщение

    Columb

    Создавать темы 30-Май-2014 10:55

           

    [Цитировать]

    About: Berlin Vol. 4--Жанр: House, Tech House, Deep House
    Носитель: CD
    Год издания: 2013
    Издатель (лейбл): Polystar
    Номер по каталогу: 00600753451229
    Аудиокодек: FLAC (*.flac)
    Тип рипа: tracks+.cue
    Битрейт аудио: lossless
    Продолжительность: 2:41:59
    Источник (релизер): CrazySem
    Наличие сканов в содержимом раздачи: Front--Треклист:
    CD1:
    01. Klingande - Jubel
    02. Max Manie - Sunday (Klangtherapeuten 'Looking For Summer' Rmx , About-Berlin Edit)
    03. Lexer - If You Run (Peer Kusiv Remix)
    04. Andhim - Hausch (Radio Edit)
    05. Charlie Boulala - Sonnenkind (Mowe Remix)
    06. Mowe - Blauer Tag (Robin Schulz Remix)
    07. Scheinizzl & Max Manie - Infinite Time
    08. KlangTherapeuten - Perlentaucher (Robin Schulz Remix)
    09. Robin Schulz & DanSir - Never Know Me
    10. Chris Malinchak - So Good To Me (Extended Remix)
    11. The Peacemaker Project - It Really Hurts (Video Edit)
    12. Parov Stelar - Love Remix)
    13. Royal Ruv - Sunny Side Up
    14. Bakermat - Vandaag
    Total Time: 1:20:45
    CD2:
    01. Oliver Koletzki - Warschauer Straße
    02. Fritz Kalkbrenner - Little By Little (Jonas Woehl Remix)
    03. Marek Hemmann - Zunder
    04. Heinrichs & Hirtenfellner - U Make Me Feel
    05. Roter & Lewis feat. Diva - Serious Problems (Mirco Niemeier Remix)
    06. Teenage Mutants & Kant - No One Knows
    07. Ante Perry - Love
    08. Le Youth - C O O L (Ben Pearce Remix)
    09. Simone Vitullo feat. Lady Vale - Passionately (Radio Remix)
    10. Motor City Drum Ensemble - Send A Prayer #2
    11. Foals - Late Night (Solomun Remix Radio Edit)
    12. Francesco Rossi - Paper Aeroplane (Radio Edit)
    13. Clean Bandit - Dust Clears
    14. Chasing Kurt - From The Inside (Daniel Bortz Remix)
    Total Time: 1:21:13--

    Лог создания рипа

    CD1

    Exact Audio Copy V1.0 beta 3 from 29. August 2011
    EAC extraction logfile from 6. May 2014, 21:57
    Various Artists / About:Berlin Vol:4 CD1
    Used drive : PIONEER DVD-RW DVR-220 Adapter: 4 ID: 0
    Read mode : SecureUtilize accurate stream : YesDefeat audio cache : YesMake use of C2 pointers : No
    Read offset correction : 6Overread into Lead-In and Lead-Out : NoFill up missing offset samples with silence : YesDelete leading and trailing silent blocks : NoNull samples used in CRC calculations : YesUsed interface : Native Win32 interface for Win NT & 2000Gap handling : Appended to previous track
    Used output format : User Defined EncoderSelected bitrate : 896 kBit/sQuality : HighAdd ID3 tag : NoCommand line compressor : C:\Program Files (x86)\Exact Audio Copy\Flac\flac.exeAdditional command line options : -8 -V -T "ARTIST=%artist%" -T "TITLE=%title%" -T "ALBUM=%albumtitle%" -T "DATE=%year%" -T "TRACKNUMBER=%tracknr%" -T "GENRE=%genre%" -T "PERFORMER=%albuminterpret%" -T "COMPOSER=%composer%" %haslyrics%--tag-from-file=LYRICS="%lyricsfile%"%haslyrics% -T "ALBUMARTIST=%albumartist%" -T "DISCNUMBER=%cdnumber%" -T "TOTALDISCS=%totalcds%" -T "TOTALTRACKS=%numtracks%" -T "COMMENT=%comment%" %source% -o %dest%
    TOC of the extracted CD
    Track | Start | Length | Start sector | End sector --------------------------------------------------------- 1 | 0:00.00 | 4:40.44 | 0 | 21043 2 | 4:40.44 | 5:59.71 | 21044 | 48039 3 | 10:40.40 | 5:52.57 | 48040 | 74496 4 | 16:33.22 | 3:58.66 | 74497 | 92412 5 | 20:32.13 | 6:19.35 | 92413 | 120872 6 | 26:51.48 | 7:56.11 | 120873 | 156583 7 | 34:47.59 | 6:01.74 | 156584 | 183732 8 | 40:49.58 | 7:17.05 | 183733 | 216512 9 | 48:06.63 | 6:41.40 | 216513 | 246627 10 | 54:48.28 | 4:14.44 | 246628 | 265721 11 | 59:02.72 | 5:36.19 | 265722 | 290940 12 | 64:39.16 | 4:27.24 | 290941 | 310989 13 | 69:06.40 | 6:16.20 | 310990 | 339209 14 | 75:22.60 | 5:23.10 | 339210 | 363444
    Track 1
    Filename L:\MUSIC\VA - About Berlin Vol. 4 (2013) [CD-FLAC]\1-01. Klingande - Jubel.wav
    Pre-gap length 0:00:02.00
    Peak level 92.3 % Extraction speed 5.1 X Track quality 100.0 % Test CRC EC006485 Copy CRC EC006485 Accurately ripped (confidence 1) [14DF4AC5] (AR v2) Copy OK
    Track 2
    Filename L:\MUSIC\VA - About Berlin Vol. 4 (2013) [CD-FLAC]\1-02. Max Manie - Sunday (Klangtherapeuten 'Looking For Summer' Rmx , About-Berlin Edit).wav
    Peak level 98.2 % Extraction speed 5.8 X Track quality 100.0 % Test CRC 141A1750 Copy CRC 141A1750 Accurately ripped (confidence 1) [CF50C40E] (AR v2) Copy OK
    Track 3
    Filename L:\MUSIC\VA - About Berlin Vol. 4 (2013) [CD-FLAC]\1-03. Lexer - If You Run (Peer Kusiv Remix).wav
    Peak level 91.8 % Extraction speed 6.4 X Track quality 100.0 % Test CRC 87E1D74B Copy CRC 87E1D74B Accurately ripped (confidence 1) [C8E10DB6] (AR v2) Copy OK
    Track 4
    Filename L:\MUSIC\VA - About Berlin Vol. 4 (2013) [CD-FLAC]\1-04. Andhim - Hausch (Radio Edit).wav
    Peak level 91.6 % Extraction speed 6.6 X Track quality 100.0 % Test CRC 103B7369 Copy CRC 103B7369 Accurately ripped (confidence 1) [E200FC3E] (AR v2) Copy OK
    Track 5
    Filename L:\MUSIC\VA - About Berlin Vol. 4 (2013) [CD-FLAC]\1-05. Charlie Boulala - Sonnenkind (Mowe Remix).wav
    Peak level 96.7 % Extraction speed 6.0 X Track quality 99.9 % Test CRC B7054175 Copy CRC B7054175 Accurately ripped (confidence 1) [70391A31] (AR v2) Copy OK
    Track 6
    Filename L:\MUSIC\VA - About Berlin Vol. 4 (2013) [CD-FLAC]\1-06. Mowe - Blauer Tag (Robin Schulz Remix).wav
    Peak level 78.8 % Extraction speed 7.5 X Track quality 100.0 % Test CRC 78D27FED Copy CRC 78D27FED Accurately ripped (confidence 1) [0A3F757B] (AR v2) Copy OK
    Track 7
    Filename L:\MUSIC\VA - About Berlin Vol. 4 (2013) [CD-FLAC]\1-07. Scheinizzl & Max Manie - Infinite Time.wav
    Peak level 96.7 % Extraction speed 8.4 X Track quality 100.0 % Test CRC 0C65CCE9 Copy CRC 0C65CCE9 Accurately ripped (confidence 1) [7FD44982] (AR v2) Copy OK
    Track 8
    Filename L:\MUSIC\VA - About Berlin Vol. 4 (2013) [CD-FLAC]\1-08. KlangTherapeuten - Perlentaucher (Robin Schulz Remix).wav
    Peak level 89.3 % Extraction speed 8.2 X Track quality 100.0 % Test CRC 7E87AD83 Copy CRC 7E87AD83 Accurately ripped (confidence 1) [A468BB98] (AR v2) Copy OK
    Track 9
    Filename L:\MUSIC\VA - About Berlin Vol. 4 (2013) [CD-FLAC]\1-09. Robin Schulz & DanSir - Never Know Me.wav
    Peak level 93.6 % Extraction speed 9.4 X Track quality 100.0 % Test CRC F6164AD4 Copy CRC F6164AD4 Accurately ripped (confidence 1) [EE8125A0] (AR v2) Copy OK
    Track 10
    Filename L:\MUSIC\VA - About Berlin Vol. 4 (2013) [CD-FLAC]\1-10. Chris Malinchak - So Good To Me (Extended Remix).wav
    Peak level 98.8 % Extraction speed 9.0 X Track quality 100.0 % Test CRC D908AFF6 Copy CRC D908AFF6 Accurately ripped (confidence 1) [50D2F441] (AR v2) Copy OK
    Track 11
    Filename L:\MUSIC\VA - About Berlin Vol. 4 (2013) [CD-FLAC]\1-11. The Peacemaker Project - It Really Hurts (Video Edit).wav
    Peak level 96.0 % Extraction speed 9.8 X Track quality 100.0 % Test CRC 79C74DC6 Copy CRC 79C74DC6 Accurately ripped (confidence 1) [EB3D4ED3] (AR v2) Copy OK
    Track 12
    Filename L:\MUSIC\VA - About Berlin Vol. 4 (2013) [CD-FLAC]\1-12. Parov Stelar - Love Remix).wav
    Peak level 97.0 % Extraction speed 9.8 X Track quality 100.0 % Test CRC D60A4C58 Copy CRC D60A4C58 Accurately ripped (confidence 1) [8D5AF70D] (AR v2) Copy OK
    Track 13
    Filename L:\MUSIC\VA - About Berlin Vol. 4 (2013) [CD-FLAC]\1-13. Royal Ruv - Sunny Side Up.wav
    Peak level 98.8 % Extraction speed 10.6 X Track quality 100.0 % Test CRC 07E32872 Copy CRC 07E32872 Accurately ripped (confidence 1) [8A5778B9] (AR v2) Copy OK
    Track 14
    Filename L:\MUSIC\VA - About Berlin Vol. 4 (2013) [CD-FLAC]\1-14. Bakermat - Vandaag.wav
    Peak level 94.6 % Extraction speed 10.8 X Track quality 100.0 % Test CRC FFB5EEB4 Copy CRC FFB5EEB4 Accurately ripped (confidence 1) [9BE833B2] (AR v2) Copy OK
    All tracks accurately ripped
    No errors occurred
    End of status report
    ---- CUETools DB Plugin V2.1.3
    [CTDB TOCID: asGntU7OsB7yoAIhaN4m134JcPE-] found, Submit result: asGntU7OsB7yoAIhaN4m134JcPE- has been confirmed[d0e24f31] (4/4) Accurately ripped
    ==== Log checksum 5C36182851AB5E51FB1D6897C6C72A55DC9AB8102019FB4FBD0049081007DED9 ====

    CD2

    Exact Audio Copy V1.0 beta 3 from 29. August 2011
    EAC extraction logfile from 6. May 2014, 22:25
    Various Artists / About:Berlin Vol:4 CD2
    Used drive : PIONEER DVD-RW DVR-220 Adapter: 4 ID: 0
    Read mode : SecureUtilize accurate stream : YesDefeat audio cache : YesMake use of C2 pointers : No
    Read offset correction : 6Overread into Lead-In and Lead-Out : NoFill up missing offset samples with silence : YesDelete leading and trailing silent blocks : NoNull samples used in CRC calculations : YesUsed interface : Native Win32 interface for Win NT & 2000Gap handling : Appended to previous track
    Used output format : User Defined EncoderSelected bitrate : 896 kBit/sQuality : HighAdd ID3 tag : NoCommand line compressor : C:\Program Files (x86)\Exact Audio Copy\Flac\flac.exeAdditional command line options : -8 -V -T "ARTIST=%artist%" -T "TITLE=%title%" -T "ALBUM=%albumtitle%" -T "DATE=%year%" -T "TRACKNUMBER=%tracknr%" -T "GENRE=%genre%" -T "PERFORMER=%albuminterpret%" -T "COMPOSER=%composer%" %haslyrics%--tag-from-file=LYRICS="%lyricsfile%"%haslyrics% -T "ALBUMARTIST=%albumartist%" -T "DISCNUMBER=%cdnumber%" -T "TOTALDISCS=%totalcds%" -T "TOTALTRACKS=%numtracks%" -T "COMMENT=%comment%" %source% -o %dest%
    TOC of the extracted CD
    Track | Start | Length | Start sector | End sector --------------------------------------------------------- 1 | 0:00.00 | 6:09.64 | 0 | 27738 2 | 6:09.64 | 7:17.16 | 27739 | 60529 3 | 13:27.05 | 5:06.53 | 60530 | 83532 4 | 18:33.58 | 6:11.33 | 83533 | 111390 5 | 24:45.16 | 7:34.02 | 111391 | 145442 6 | 32:19.18 | 5:54.06 | 145443 | 171998 7 | 38:13.24 | 8:16.17 | 171999 | 209215 8 | 46:29.41 | 6:25.46 | 209216 | 238136 9 | 52:55.12 | 3:38.08 | 238137 | 254494 10 | 56:33.20 | 5:27.63 | 254495 | 279082 11 | 62:01.08 | 4:31.29 | 279083 | 299436 12 | 66:32.37 | 3:39.19 | 299437 | 315880 13 | 70:11.56 | 3:50.60 | 315881 | 333190 14 | 74:02.41 | 7:11.11 | 333191 | 365526
    Track 1
    Filename L:\MUSIC\VA - About Berlin Vol. 4 (2013) [CD-FLAC]\2-01. Various Artists - Oliver Koletzki - Warschauer Stra�e.wav
    Pre-gap length 0:00:02.00
    Peak level 98.8 % Extraction speed 4.6 X Track quality 99.9 % Test CRC 50C99A05 Copy CRC 50C99A05 Accurately ripped (confidence 1) [72D556DE] (AR v2) Copy OK
    Track 2
    Filename L:\MUSIC\VA - About Berlin Vol. 4 (2013) [CD-FLAC]\2-02. Various Artists - Fritz Kalkbrenner - Little By Little (Jonas Woehl Remix).wav
    Peak level 96.2 % Extraction speed 5.5 X Track quality 99.9 % Test CRC FB606C95 Copy CRC FB606C95 Accurately ripped (confidence 1) [A65172E9] (AR v2) Copy OK
    Track 3
    Filename L:\MUSIC\VA - About Berlin Vol. 4 (2013) [CD-FLAC]\2-03. Various Artists - Marek Hemmann - Zunder.wav
    Peak level 95.4 % Extraction speed 6.5 X Track quality 100.0 % Test CRC 1269DE98 Copy CRC 1269DE98 Accurately ripped (confidence 1) [67B7EBE9] (AR v2) Copy OK
    Track 4
    Filename L:\MUSIC\VA - About Berlin Vol. 4 (2013) [CD-FLAC]\2-04. Various Artists - Heinrichs & Hirtenfellner - U Make Me Feel.wav
    Peak level 98.8 % Extraction speed 7.2 X Track quality 100.0 % Test CRC 766FB59D Copy CRC 766FB59D Accurately ripped (confidence 1) [EBC05C70] (AR v2) Copy OK
    Track 5
    Filename L:\MUSIC\VA - About Berlin Vol. 4 (2013) [CD-FLAC]\2-05. Various Artists - Roter & Lewis feat. Diva - Serious Problems (Mirco Niemeier Remix).wav
    Peak level 98.8 % Extraction speed 7.8 X Track quality 100.0 % Test CRC 9B07B9CE Copy CRC 9B07B9CE Accurately ripped (confidence 1) [F4A19B0A] (AR v2) Copy OK
    Track 6
    Filename L:\MUSIC\VA - About Berlin Vol. 4 (2013) [CD-FLAC]\2-06. Various Artists - Teenage Mutants & Kant - No One Knows.wav
    Peak level 98.8 % Extraction speed 8.2 X Track quality 100.0 % Test CRC EED62476 Copy CRC EED62476 Accurately ripped (confidence 1) [D59DB407] (AR v2) Copy OK
    Track 7
    Filename L:\MUSIC\VA - About Berlin Vol. 4 (2013) [CD-FLAC]\2-07. Various Artists - Ante Perry - Love.wav
    Peak level 97.7 % Extraction speed 8.8 X Track quality 100.0 % Test CRC DD4E90F4 Copy CRC DD4E90F4 Accurately ripped (confidence 1) [62166548] (AR v2) Copy OK
    Track 8
    Filename L:\MUSIC\VA - About Berlin Vol. 4 (2013) [CD-FLAC]\2-08. Various Artists - Le Youth - C O O L (Ben Pearce Remix).wav
    Peak level 89.7 % Extraction speed 9.1 X Track quality 100.0 % Test CRC 56A02B12 Copy CRC 56A02B12 Accurately ripped (confidence 1) [7CB2831D] (AR v2) Copy OK
    Track 9
    Filename L:\MUSIC\VA - About Berlin Vol. 4 (2013) [CD-FLAC]\2-09. Various Artists - Simone Vitullo feat. Lady Vale - Passionately (Radio Remix).wav
    Peak level 85.7 % Extraction speed 7.0 X Track quality 99.9 % Test CRC 3F6CD4C4 Copy CRC 3F6CD4C4 Accurately ripped (confidence 1) [3CEE356E] (AR v2) Copy OK
    Track 10
    Filename L:\MUSIC\VA - About Berlin Vol. 4 (2013) [CD-FLAC]\2-10. Various Artists - Motor City Drum Ensemble - Send A Prayer #2.wav
    Peak level 93.1 % Extraction speed 9.7 X Track quality 100.0 % Test CRC 5091038B Copy CRC 5091038B Accurately ripped (confidence 1) [2769F777] (AR v2) Copy OK
    Track 11
    Filename L:\MUSIC\VA - About Berlin Vol. 4 (2013) [CD-FLAC]\2-11. Various Artists - Foals - Late Night (Solomun Remix Radio Edit).wav
    Peak level 88.4 % Extraction speed 9.6 X Track quality 100.0 % Test CRC D0600A38 Copy CRC D0600A38 Accurately ripped (confidence 1) [94AD607E] (AR v2) Copy OK
    Track 12
    Filename L:\MUSIC\VA - About Berlin Vol. 4 (2013) [CD-FLAC]\2-12. Various Artists - Francesco Rossi - Paper Aeroplane (Radio Edit).wav
    Peak level 96.8 % Extraction speed 9.6 X Track quality 100.0 % Test CRC 3F580E56 Copy CRC 3F580E56 Accurately ripped (confidence 1) [E5E1EEF8] (AR v2) Copy OK
    Track 13
    Filename L:\MUSIC\VA - About Berlin Vol. 4 (2013) [CD-FLAC]\2-13. Various Artists - Clean Bandit - Dust Clears.wav
    Peak level 98.8 % Extraction speed 10.0 X Track quality 100.0 % Test CRC ADBED6B9 Copy CRC ADBED6B9 Accurately ripped (confidence 1) [859B0A5A] (AR v2) Copy OK
    Track 14
    Filename L:\MUSIC\VA - About Berlin Vol. 4 (2013) [CD-FLAC]\2-14. Various Artists - Chasing Kurt - From The Inside (Daniel Bortz Remix).wav
    Peak level 98.8 % Extraction speed 11.1 X Track quality 100.0 % Test CRC 945F1F66 Copy CRC 945F1F66 Accurately ripped (confidence 1) [AAACAB1C] (AR v2) Copy OK
    All tracks accurately ripped
    No errors occurred
    End of status report
    ---- CUETools DB Plugin V2.1.3
    [CTDB TOCID: CArF4bHvdzLazDwI33uv4xnb_MU-] found, Submit result: CArF4bHvdzLazDwI33uv4xnb_MU- has been confirmed[f1e3a0cc] (4/4) Accurately ripped
    ==== Log checksum C0FAEE493452E9DD43A4BA2021849D9F9B6AF6B7D2B5845D8722F2C07DC56A71 ====

    Содержание индексной карты (.CUE)

    CD1

    REM GENRE "Tech House, Deep House"REM DATE 2013REM DISCID D112ED0EREM COMMENT "ExactAudioCopy v1.0b3"CATALOG 0600753451236PERFORMER "Various Artists"TITLE "About:Berlin Vol:4 CD1"FILE "1-01. Klingande - Jubel.wav" WAVE TRACK 01 AUDIO TITLE "Jubel" PERFORMER "Klingande" ISRC FR6V81680341 INDEX 01 00:00:00FILE "1-02. Max Manie - Sunday (Klangtherapeuten 'Looking For Summer' Rmx , About-Berlin Edit).wav" WAVE TRACK 02 AUDIO TITLE "Sunday (Klangtherapeuten 'Looking For Summer' Rmx / About:Berlin Edit)" PERFORMER "Max Manie" ISRC DE2DY1300015 INDEX 01 00:00:00FILE "1-03. Lexer - If You Run (Peer Kusiv Remix).wav" WAVE TRACK 03 AUDIO TITLE "If You Run (Peer Kusiv Remix)" PERFORMER "Lexer" ISRC DEY201300019 INDEX 01 00:00:00FILE "1-04. Andhim - Hausch (Radio Edit).wav" WAVE TRACK 04 AUDIO TITLE "Hausch (Radio Edit)" PERFORMER "Andhim" ISRC DEBE71300164 INDEX 01 00:00:00FILE "1-05. Charlie Boulala - Sonnenkind (Mowe Remix).wav" WAVE TRACK 05 AUDIO TITLE "Sonnenkind (Mowe Remix)" PERFORMER "Charlie Boulala" ISRC DE2DY1300013 INDEX 01 00:00:00FILE "1-06. Mowe - Blauer Tag (Robin Schulz Remix).wav" WAVE TRACK 06 AUDIO TITLE "Blauer Tag (Robin Schulz Remix)" PERFORMER "Mowe" ISRC DE2DY1300014 INDEX 01 00:00:00FILE "1-07. Scheinizzl & Max Manie - Infinite Time.wav" WAVE TRACK 07 AUDIO TITLE "Infinite Time" PERFORMER "Scheinizzl & Max Manie" ISRC DE2DY1300011 INDEX 01 00:00:00FILE "1-08. KlangTherapeuten - Perlentaucher (Robin Schulz Remix).wav" WAVE TRACK 08 AUDIO TITLE "Perlentaucher (Robin Schulz Remix)" PERFORMER "KlangTherapeuten" ISRC DEH741305506 INDEX 01 00:00:00FILE "1-09. Robin Schulz & DanSir - Never Know Me.wav" WAVE TRACK 09 AUDIO TITLE "Never Know Me" PERFORMER "Robin Schulz & DanSir" ISRC DERU31300001 INDEX 01 00:00:00FILE "1-10. Chris Malinchak - So Good To Me (Extended Remix).wav" WAVE TRACK 10 AUDIO TITLE "So Good To Me (Extended Remix)" PERFORMER "Chris Malinchak" ISRC DEN061302243 INDEX 01 00:00:00FILE "1-11. The Peacemaker Project - It Really Hurts (Video Edit).wav" WAVE TRACK 11 AUDIO TITLE "It Really Hurts (Video Edit)" PERFORMER "The Peacemaker Project" ISRC DEKB71369058 INDEX 01 00:00:00FILE "1-12. Parov Stelar - Love Remix).wav" WAVE TRACK 12 AUDIO TITLE "Love Remix)" PERFORMER "Parov Stelar" ISRC ATE612000035 INDEX 01 00:00:00FILE "1-13. Royal Ruv - Sunny Side Up.wav" WAVE TRACK 13 AUDIO TITLE "Sunny Side Up" PERFORMER "Royal Ruv" ISRC DE2DY1300012 INDEX 01 00:00:00FILE "1-14. Bakermat - Vandaag.wav" WAVE TRACK 14 AUDIO TITLE "Vandaag" PERFORMER "Bakermat" ISRC QMSNZ1258477 INDEX 01 00:00:00

    CD2

    REM GENRE "Tech House"REM DATE 2013REM DISCID D613090EREM COMMENT "ExactAudioCopy v1.0b3"CATALOG 0600753451243PERFORMER "Various Artists"TITLE "About:Berlin Vol:4 CD2"FILE "2-01. Various Artists - Oliver Koletzki - Warschauer Stra.e.wav" WAVE TRACK 01 AUDIO TITLE "Oliver Koletzki - Warschauer Stra.e" PERFORMER "Various Artists" ISRC DEKN60900179 INDEX 01 00:00:00FILE "2-02. Various Artists - Fritz Kalkbrenner - Little By Little (Jonas Woehl Remix).wav" WAVE TRACK 02 AUDIO TITLE "Fritz Kalkbrenner - Little By Little (Jonas Woehl Remix)" PERFORMER "Various Artists" ISRC DEAF71257219 INDEX 01 00:00:00FILE "2-03. Various Artists - Marek Hemmann - Zunder.wav" WAVE TRACK 03 AUDIO TITLE "Marek Hemmann - Zunder" PERFORMER "Various Artists" ISRC DEDU61300036 INDEX 01 00:00:00FILE "2-04. Various Artists - Heinrichs & Hirtenfellner - U Make Me Feel.wav" WAVE TRACK 04 AUDIO TITLE "Heinrichs & Hirtenfellner - U Make Me Feel" PERFORMER "Various Artists" ISRC DEHB41300041 INDEX 01 00:00:00FILE "2-05. Various Artists - Roter & Lewis feat. Diva - Serious Problems (Mirco Niemeier Remix).wav" WAVE TRACK 05 AUDIO TITLE "Roter & Lewis feat. Diva - Serious Problems (Mirco Niemeier Remix)" PERFORMER "Various Artists" ISRC DEGD51206346 INDEX 01 00:00:00FILE "2-06. Various Artists - Teenage Mutants & Kant - No One Knows.wav" WAVE TRACK 06 AUDIO TITLE "Teenage Mutants & Kant - No One Knows" PERFORMER "Various Artists" ISRC DEFA41120108 INDEX 01 00:00:00FILE "2-07. Various Artists - Ante Perry - Love.wav" WAVE TRACK 07 AUDIO TITLE "Ante Perry - Love" PERFORMER "Various Artists" ISRC DEFA41120099 INDEX 01 00:00:00FILE "2-08. Various Artists - Le Youth - C O O L (Ben Pearce Remix).wav" WAVE TRACK 08 AUDIO TITLE "Le Youth - C O O L (Ben Pearce Remix)" PERFORMER "Various Artists" ISRC GBARL1300153 INDEX 01 00:00:00FILE "2-09. Various Artists - Simone Vitullo feat. Lady Vale - Passionately (Radio Remix).wav" WAVE TRACK 09 AUDIO TITLE "Simone Vitullo feat. Lady Vale - Passionately (Radio Remix)" PERFORMER "Various Artists" ISRC ITSV21300110 INDEX 01 00:00:00FILE "2-10. Various Artists - Motor City Drum Ensemble - Send A Prayer #2.wav" WAVE TRACK 10 AUDIO TITLE "Motor City Drum Ensemble - Send A Prayer #2" PERFORMER "Various Artists" ISRC DEZ651315546 INDEX 01 00:00:00FILE "2-11. Various Artists - Foals - Late Night (Solomun Remix Radio Edit).wav" WAVE TRACK 11 AUDIO TITLE "Foals - Late Night (Solomun Remix Radio Edit)" PERFORMER "Various Artists" ISRC GBAHT1300474 INDEX 01 00:00:00FILE "2-12. Various Artists - Francesco Rossi - Paper Aeroplane (Radio Edit).wav" WAVE TRACK 12 AUDIO TITLE "Francesco Rossi - Paper Aeroplane (Radio Edit)" PERFORMER "Various Artists" ISRC IT00D1300801 INDEX 01 00:00:00FILE "2-13. Various Artists - Clean Bandit - Dust Clears.wav" WAVE TRACK 13 AUDIO TITLE "Clean Bandit - Dust Clears" PERFORMER "Various Artists" ISRC GBAHS1300214 INDEX 01 00:00:00FILE "2-14. Various Artists - Chasing Kurt - From The Inside (Daniel Bortz Remix).wav" WAVE TRACK 14 AUDIO TITLE "Chasing Kurt - From The Inside (Daniel Bortz Remix)" PERFORMER "Various Artists" ISRC DEAF71310726 INDEX 01 00:00:00

    Лог проверки качества

    AUDIOCHECKER v2.0 beta (build 457) - by Dester - opdester@freemail.hu~~~~~~~~~~~~~~~~~~~~~~~~~~~~~~~~~~-=== DO NOT EDIT THIS FILE! ===-
    Path: ...\VA - About Berlin Vol. 4 (2013) [CD-FLAC]
    01 -=- 1-01. Klingande - Jubel.flac -=- CDDA (100%)02 -=- 1-02. Max Manie - Sunday (Klangtherapeuten 'Looking For Summer' Rmx , About-Berlin Edit).flac -=- CDDA (100%)03 -=- 1-03. Lexer - If You Run (Peer Kusiv Remix).flac -=- CDDA (100%)04 -=- 1-04. Andhim - Hausch (Radio Edit).flac -=- CDDA (100%)05 -=- 1-05. Charlie Boulala - Sonnenkind (Mowe Remix).flac -=- CDDA (100%)06 -=- 1-06. Mowe - Blauer Tag (Robin Schulz Remix).flac -=- CDDA (100%)07 -=- 1-07. Scheinizzl & Max Manie - Infinite Time.flac -=- CDDA (99%)08 -=- 1-08. KlangTherapeuten - Perlentaucher (Robin Schulz Remix).flac -=- CDDA (99%)09 -=- 1-09. Robin Schulz & DanSir - Never Know Me.flac -=- CDDA (99%)10 -=- 1-10. Chris Malinchak - So Good To Me (Extended Remix).flac -=- CDDA (100%)11 -=- 1-11. The Peacemaker Project - It Really Hurts (Video Edit).flac -=- CDDA (100%)12 -=- 1-12. Parov Stelar - Love Remix).flac -=- CDDA (99%)13 -=- 1-13. Royal Ruv - Sunny Side Up.flac -=- CDDA (100%)14 -=- 1-14. Bakermat - Vandaag.flac -=- CDDA (99%)15 -=- 2-01. Oliver Koletzki - Warschauer Stra?e.flac -=- ERROR16 -=- 2-02. Fritz Kalkbrenner - Little By Little (Jonas Woehl Remix).flac -=- CDDA (100%)17 -=- 2-03. Marek Hemmann - Zunder.flac -=- CDDA (100%)18 -=- 2-04. Heinrichs & Hirtenfellner - U Make Me Feel.flac -=- CDDA (100%)19 -=- 2-05. Roter & Lewis feat. Diva - Serious Problems (Mirco Niemeier Remix).flac -=- CDDA (100%)20 -=- 2-06. Teenage Mutants & Kant - No One Knows.flac -=- CDDA (100%)21 -=- 2-07. Ante Perry - Love.flac -=- CDDA (100%)22 -=- 2-08. Le Youth - C O O L (Ben Pearce Remix).flac -=- CDDA (100%)23 -=- 2-09. Simone Vitullo feat. Lady Vale - Passionately (Radio Remix).flac -=- CDDA (99%)24 -=- 2-10. Motor City Drum Ensemble - Send A Prayer #2.flac -=- CDDA (100%)25 -=- 2-11. Foals - Late Night (Solomun Remix Radio Edit).flac -=- CDDA (100%)26 -=- 2-12. Francesco Rossi - Paper Aeroplane (Radio Edit).flac -=- CDDA (99%)27 -=- 2-13. Clean Bandit - Dust Clears.flac -=- CDDA (100%)28 -=- 2-14. Chasing Kurt - From The Inside (Daniel Bortz Remix).flac -=- CDDA (100%)
    Summary 99,74% CDDA
    122169540
    Скачать .torrent

    Скачать торрент-файл бесплатно и на максимальной скорости!

    Как скачивать? · Что такое торрент? · Рейтинг и ограничения

    !ВНИМАНИЕ!
    Сайт не распространяет и не хранит электронные версии произведений, а занимается лишь лишь предоставлением доступа к создаваемому пользователями каталогу ссылок на торрент-файлы, которые содержат только списки хеш-сумм, убедительная просьба с жалобами обращаться напрямую к пользователю. Файлы для обмена на трекере предоставлены пользователями сайта, и администрация не несёт ответственности за их содержание. Просьба не заливать файлы, защищенные авторскими правами, а также файлы нелегального содержания!

    [Профиль] [ЛС]
    Показать сообщения:    
    Ответить на тему

    Текущее время: Сегодня, в 17:25

    Часовой пояс: GMT + 2



    Вы не можете начинать темы
    Вы не можете отвечать на сообщения
    Вы не можете редактировать свои сообщения
    Вы не можете удалять свои сообщения
    Вы не можете голосовать в опросах
    Вы не можете прикреплять файлы к сообщениям
    Вы не можете скачивать файлы