BitTorrentTracker PerecTracker.org
BitTorrentTracker PerecTracker.org
    
Регистрация  ·  Вход
 
 · 
Забыли пароль?

  • (Hardcore, Industrial, Electro, Noise, Experimental) [CD] Atari Teenage Riot - Reset [Japan] [Bonus Tracks] - 2014, FLAC (tracks+.cue), lossless

    Ответить на тему
     
    Автор Сообщение

    Columb

    Создавать темы 30-Май-2014 10:50

           

    [Цитировать]

    Atari Teenage Riot / Reset [Japan] [Bonus Tracks]
    Жанр: Hardcore, Industrial, Electro, Noise, Experimental
    Носитель: CD
    Страна-производитель диска: Higashi, Shibuya, Tokyo, Japan
    Год издания: 2014
    Издатель (лейбл): Beat Records
    Номер по каталогу: (BRC-413)
    Страна: Germany\Berlin
    Аудиокодек: FLAC (*.flac)
    Тип рипа: tracks+.cue
    Битрейт аудио: lossless
    Продолжительность: 00:54:36
    Источник (релизер): kickass.to (CodeTempest)
    Наличие сканов в содержимом раздачи: нет
    Треклист:
    01. J1M1 [03:15.37]
    02. Street Grime [03:12.05]
    03. Reset [04:27.47]
    04. Death Machine [03:55.29]
    05. Modern Liars [04:02.56]
    06. Cra$h [03:42.58]
    07. New Blood [03:50.45]
    08. Transducer [05:21.06]
    09. Erase Your Face [06:15.35]
    10. We Are From the Internet [04:51.50]
    11. We Are From the Internet [dub instrumental] [04:52.21]
    12. Activate [Live From Hell 13, feat. Rowdy SS] [03:38.31]
    13. Atari Teenage Riot [Live From Hell 13, feat. Rowdy SS] [03:10.38]

    EAC

    Exact Audio Copy V1.0 beta 3 from 29. August 2011
    EAC extraction logfile from 28. March 2014, 9:06
    Atari Teenage Riot / Reset [Japan] [Bonus Tracks]
    Used drive : TSSTcorpCDDVDW SE-218CB Adapter: 0 ID: 0
    Read mode : SecureUtilize accurate stream : YesDefeat audio cache : YesMake use of C2 pointers : No
    Read offset correction : 6Overread into Lead-In and Lead-Out : NoFill up missing offset samples with silence : YesDelete leading and trailing silent blocks : NoNull samples used in CRC calculations : YesUsed interface : Native Win32 interface for Win NT & 2000Gap handling : Appended to previous track
    Used output format : User Defined EncoderSelected bitrate : 1024 kBit/sQuality : HighAdd ID3 tag : NoCommand line compressor : C:\Program Files (x86)\Exact Audio Copy\FLAC\FLAC.EXEAdditional command line options : -8 -V -T "ARTIST=%artist%" -T "TITLE=%title%" -T "ALBUM=%albumtitle%" -T "DATE=%year%" -T "TRACKNUMBER=%tracknr%" -T "GENRE=%genre%" -T "PERFORMER=%albuminterpret%" -T "COMPOSER=%composer%" %haslyrics%--tag-from-file=LYRICS="%lyricsfile%"%haslyrics% -T "ALBUMARTIST=%albumartist%" -T "DISCNUMBER=%cdnumber%" -T "TOTALDISCS=%totalcds%" -T "TOTALTRACKS=%numtracks%" -T "COMMENT=%comment%" %source% -o %dest%
    TOC of the extracted CD
    Track | Start | Length | Start sector | End sector --------------------------------------------------------- 1 | 0:00.00 | 3:15.37 | 0 | 14661 2 | 3:15.37 | 3:12.05 | 14662 | 29066 3 | 6:27.42 | 4:27.47 | 29067 | 49138 4 | 10:55.14 | 3:55.29 | 49139 | 66792 5 | 14:50.43 | 4:02.56 | 66793 | 84998 6 | 18:53.24 | 3:42.58 | 84999 | 101706 7 | 22:36.07 | 3:50.45 | 101707 | 119001 8 | 26:26.52 | 5:21.06 | 119002 | 143082 9 | 31:47.58 | 6:15.35 | 143083 | 171242 10 | 38:03.18 | 4:51.50 | 171243 | 193117 11 | 42:54.68 | 4:52.21 | 193118 | 215038 12 | 47:47.14 | 3:38.31 | 215039 | 231419 13 | 51:25.45 | 3:10.38 | 231420 | 245707
    Track 1
    Filename C:\EACrips\Atari Teenage Riot - Reset (2014) [Japan Bonus Tracks]\01 J1M1.wav
    Pre-gap length 0:00:02.00
    Peak level 100.0 % Extraction speed 2.5 X Track quality 100.0 % Test CRC 33CF19F0 Copy CRC 33CF19F0 Track not present in AccurateRip database Copy OK
    Track 2
    Filename C:\EACrips\Atari Teenage Riot - Reset (2014) [Japan Bonus Tracks]\02 Street Grime.wav
    Peak level 100.0 % Extraction speed 2.7 X Track quality 100.0 % Test CRC EBF93103 Copy CRC EBF93103 Track not present in AccurateRip database Copy OK
    Track 3
    Filename C:\EACrips\Atari Teenage Riot - Reset (2014) [Japan Bonus Tracks]\03 Reset.wav
    Peak level 100.0 % Extraction speed 3.1 X Track quality 100.0 % Test CRC 634CA1A7 Copy CRC 634CA1A7 Track not present in AccurateRip database Copy OK
    Track 4
    Filename C:\EACrips\Atari Teenage Riot - Reset (2014) [Japan Bonus Tracks]\04 Death Machine.wav
    Peak level 100.0 % Extraction speed 2.5 X Track quality 99.9 % Test CRC CBFE14CA Copy CRC CBFE14CA Track not present in AccurateRip database Copy OK
    Track 5
    Filename C:\EACrips\Atari Teenage Riot - Reset (2014) [Japan Bonus Tracks]\05 Modern Liars.wav
    Peak level 100.0 % Extraction speed 3.6 X Track quality 100.0 % Test CRC 5AB6A15F Copy CRC 5AB6A15F Track not present in AccurateRip database Copy OK
    Track 6
    Filename C:\EACrips\Atari Teenage Riot - Reset (2014) [Japan Bonus Tracks]\06 Cra$h.wav
    Peak level 100.0 % Extraction speed 2.7 X Track quality 99.9 % Test CRC 96654DF7 Copy CRC 96654DF7 Track not present in AccurateRip database Copy OK
    Track 7
    Filename C:\EACrips\Atari Teenage Riot - Reset (2014) [Japan Bonus Tracks]\07 New Blood.wav
    Peak level 100.0 % Extraction speed 3.9 X Track quality 100.0 % Test CRC 3F80F1FB Copy CRC 3F80F1FB Track not present in AccurateRip database Copy OK
    Track 8
    Filename C:\EACrips\Atari Teenage Riot - Reset (2014) [Japan Bonus Tracks]\08 Transducer.wav
    Peak level 100.0 % Extraction speed 4.3 X Track quality 100.0 % Test CRC 142DAC65 Copy CRC 142DAC65 Track not present in AccurateRip database Copy OK
    Track 9
    Filename C:\EACrips\Atari Teenage Riot - Reset (2014) [Japan Bonus Tracks]\09 Erase Your Face.wav
    Peak level 100.0 % Extraction speed 3.7 X Track quality 99.9 % Test CRC 8DD56017 Copy CRC 8DD56017 Track not present in AccurateRip database Copy OK
    Track 10
    Filename C:\EACrips\Atari Teenage Riot - Reset (2014) [Japan Bonus Tracks]\10 We Are From the Internet.wav
    Peak level 100.0 % Extraction speed 4.7 X Track quality 100.0 % Test CRC 8C64459A Copy CRC 8C64459A Track not present in AccurateRip database Copy OK
    Track 11
    Filename C:\EACrips\Atari Teenage Riot - Reset (2014) [Japan Bonus Tracks]\11 We Are From the Internet (Dub Instrumental).wav
    Peak level 100.0 % Extraction speed 4.9 X Track quality 100.0 % Test CRC A49D015E Copy CRC A49D015E Track not present in AccurateRip database Copy OK
    Track 12
    Filename C:\EACrips\Atari Teenage Riot - Reset (2014) [Japan Bonus Tracks]\12 Activate (Live From Hell 13 - Feat. Rowdy SS).wav
    Peak level 100.0 % Extraction speed 4.8 X Track quality 100.0 % Test CRC B2A6C15C Copy CRC B2A6C15C Track not present in AccurateRip database Copy OK
    Track 13
    Filename C:\EACrips\Atari Teenage Riot - Reset (2014) [Japan Bonus Tracks]\13 Atari Teenage Riot (Live From Hell 13 - Feat. Rowdy SS).wav
    Peak level 100.0 % Extraction speed 4.8 X Track quality 100.0 % Test CRC BAC29C14 Copy CRC BAC29C14 Track not present in AccurateRip database Copy OK
    None of the tracks are present in the AccurateRip database
    No errors occurred
    End of status report
    ==== Log checksum D7EC9ED65A952D62AA0814E00DF79CE40B5AC6515132F937236EF22A167E46FD ====

    XLD

    X Lossless Decoder version 20140504 (147.0)
    XLD AccurateRip checking logfile
    TOC of the selected file Track | Start | Length | Start sector | End sector --------------------------------------------------------- 1 | 00:00:00 | 03:15:37 | 0 | 14661 2 | 03:15:37 | 03:12:05 | 14662 | 29066 3 | 06:27:42 | 04:27:47 | 29067 | 49138 4 | 10:55:14 | 03:55:29 | 49139 | 66792 5 | 14:50:43 | 04:02:56 | 66793 | 84998 6 | 18:53:24 | 03:42:58 | 84999 | 101706 7 | 22:36:07 | 03:50:45 | 101707 | 119001 8 | 26:26:52 | 05:21:06 | 119002 | 143082 9 | 31:47:58 | 06:15:35 | 143083 | 171242 10 | 38:03:18 | 04:51:50 | 171243 | 193117 11 | 42:54:68 | 04:52:21 | 193118 | 215038 12 | 47:47:14 | 03:38:31 | 215039 | 231419 13 | 51:25:45 | 03:10:38 | 231420 | 245707
    AccurateRip Summary (DiscID: 001967d4-010301f1-e00ccc0d) Track 01 : OK (v2, confidence 1/1) Track 02 : OK (v2, confidence 1/1) Track 03 : OK (v2, confidence 1/1) Track 04 : OK (v2, confidence 1/1) Track 05 : OK (v2, confidence 1/1) Track 06 : OK (v2, confidence 1/1) Track 07 : OK (v2, confidence 1/1) Track 08 : OK (v2, confidence 1/1) Track 09 : OK (v2, confidence 1/1) Track 10 : OK (v2, confidence 1/1) Track 11 : OK (v2, confidence 1/1) Track 12 : OK (v2, confidence 1/1) Track 13 : OK (v2, confidence 1/1) ->All tracks accurately ripped.
    All Tracks Album gain : -12.10 dB Peak : 1.000000 CRC32 hash : 9B123293 CRC32 hash (skip zero) : 389B939E
    Track 01 Track gain : -13.18 dB Peak : 1.000000 CRC32 hash : 33CF19F0 CRC32 hash (skip zero) : 2325E7DE AccurateRip v1 signature : 87B4099D AccurateRip v2 signature : 464658C3 ->Accurately ripped (v2, confidence 1/1)
    Track 02 Track gain : -12.11 dB Peak : 1.000000 CRC32 hash : EBF93103 CRC32 hash (skip zero) : C9AC4583 AccurateRip v1 signature : 9956493D AccurateRip v2 signature : A38FDEB4 ->Accurately ripped (v2, confidence 1/1)
    Track 03 Track gain : -11.76 dB Peak : 1.000000 CRC32 hash : 634CA1A7 CRC32 hash (skip zero) : ADF8DEC2 AccurateRip v1 signature : 0BB70B5B AccurateRip v2 signature : B965185D ->Accurately ripped (v2, confidence 1/1)
    Track 04 Track gain : -12.27 dB Peak : 1.000000 CRC32 hash : CBFE14CA CRC32 hash (skip zero) : 4BBE9D84 AccurateRip v1 signature : 8E9CF908 AccurateRip v2 signature : 8DECB9CE ->Accurately ripped (v2, confidence 1/1)
    Track 05 Track gain : -12.47 dB Peak : 1.000000 CRC32 hash : 5AB6A15F CRC32 hash (skip zero) : FA4D839C AccurateRip v1 signature : 7E4C90F7 AccurateRip v2 signature : AE961F72 ->Accurately ripped (v2, confidence 1/1)
    Track 06 Track gain : -12.15 dB Peak : 1.000000 CRC32 hash : 96654DF7 CRC32 hash (skip zero) : B7D1F16F AccurateRip v1 signature : 0577DF13 AccurateRip v2 signature : 12F23F6B ->Accurately ripped (v2, confidence 1/1)
    Track 07 Track gain : -12.67 dB Peak : 1.000000 CRC32 hash : 3F80F1FB CRC32 hash (skip zero) : C8C20692 AccurateRip v1 signature : F8CC643A AccurateRip v2 signature : E71295FA ->Accurately ripped (v2, confidence 1/1)
    Track 08 Track gain : -10.09 dB Peak : 1.000000 CRC32 hash : 142DAC65 CRC32 hash (skip zero) : 69F458A7 AccurateRip v1 signature : EBAA5C35 AccurateRip v2 signature : D10E8ECF ->Accurately ripped (v2, confidence 1/1)
    Track 09 Track gain : -10.99 dB Peak : 1.000000 CRC32 hash : 8DD56017 CRC32 hash (skip zero) : 120E417A AccurateRip v1 signature : 8E0BE44B AccurateRip v2 signature : 88465BE0 ->Accurately ripped (v2, confidence 1/1)
    Track 10 Track gain : -10.46 dB Peak : 1.000000 CRC32 hash : 8C64459A CRC32 hash (skip zero) : 7DA13BEC AccurateRip v1 signature : F4C98137 AccurateRip v2 signature : 8D2377AE ->Accurately ripped (v2, confidence 1/1)
    Track 11 Track gain : -9.65 dB Peak : 1.000000 CRC32 hash : A49D015E CRC32 hash (skip zero) : 8EAEA8D4 AccurateRip v1 signature : C95A0A47 AccurateRip v2 signature : 1AF6BFBD ->Accurately ripped (v2, confidence 1/1)
    Track 12 Track gain : -11.75 dB Peak : 1.000000 CRC32 hash : B2A6C15C CRC32 hash (skip zero) : C19BBA22 AccurateRip v1 signature : 37C3E8D0 AccurateRip v2 signature : 4B8208E0 ->Accurately ripped (v2, confidence 1/1)
    Track 13 Track gain : -12.17 dB Peak : 1.000000 CRC32 hash : BAC29C14 CRC32 hash (skip zero) : 603F5514 AccurateRip v1 signature : 408D9C9A AccurateRip v2 signature : 7FDAAEBA ->Accurately ripped (v2, confidence 1/1)
    End of status report

    Содержание индексной карты (.CUE)

    REM GENRE "Digital Hardcore"REM DATE 2014REM DISCID E00CCC0DREM COMMENT "ExactAudioCopy v1.0b3"PERFORMER "Atari Teenage Riot"TITLE "Reset [Japan] [Bonus Tracks]"FILE "01 J1M1.wav" WAVE TRACK 01 AUDIO TITLE "J1M1" PERFORMER "Atari Teenage Riot" ISRC GBBXA1401278 INDEX 01 00:00:00FILE "02 Street Grime.wav" WAVE TRACK 02 AUDIO TITLE "Street Grime" PERFORMER "Atari Teenage Riot" ISRC GBBXA1401279 INDEX 01 00:00:00FILE "03 Reset.wav" WAVE TRACK 03 AUDIO TITLE "Reset" PERFORMER "Atari Teenage Riot" ISRC GBBXA1401280 INDEX 01 00:00:00FILE "04 Death Machine.wav" WAVE TRACK 04 AUDIO TITLE "Death Machine" PERFORMER "Atari Teenage Riot" ISRC GBBXA1401281 INDEX 01 00:00:00FILE "05 Modern Liars.wav" WAVE TRACK 05 AUDIO TITLE "Modern Liars" PERFORMER "Atari Teenage Riot" ISRC GBBXA1401282 INDEX 01 00:00:00FILE "06 Cra$h.wav" WAVE TRACK 06 AUDIO TITLE "Cra$h" PERFORMER "Atari Teenage Riot" ISRC GBBXA1401283 INDEX 01 00:00:00FILE "07 New Blood.wav" WAVE TRACK 07 AUDIO TITLE "New Blood" PERFORMER "Atari Teenage Riot" ISRC GBBXA1401284 INDEX 01 00:00:00FILE "08 Transducer.wav" WAVE TRACK 08 AUDIO TITLE "Transducer" PERFORMER "Atari Teenage Riot" ISRC GBBXA1401285 INDEX 01 00:00:00FILE "09 Erase Your Face.wav" WAVE TRACK 09 AUDIO TITLE "Erase Your Face" PERFORMER "Atari Teenage Riot" ISRC GBBXA1401286 INDEX 01 00:00:00FILE "10 We Are From the Internet.wav" WAVE TRACK 10 AUDIO TITLE "We Are From the Internet" PERFORMER "Atari Teenage Riot" ISRC GBBXA1401286 INDEX 01 00:00:00FILE "11 We Are From the Internet (Dub Instrumental).wav" WAVE TRACK 11 AUDIO TITLE "We Are From the Internet (Dub Instrumental)" PERFORMER "Atari Teenage Riot" ISRC GBBXA1401288 INDEX 01 00:00:00FILE "12 Activate (Live From Hell 13 - Feat. Rowdy SS).wav" WAVE TRACK 12 AUDIO TITLE "Activate (Live From Hell 13 - Feat. Rowdy SS)" PERFORMER "Atari Teenage Riot" ISRC GBBXA1401289 INDEX 01 00:00:00FILE "13 Atari Teenage Riot (Live From Hell 13 - Feat. Rowdy SS).wav" WAVE TRACK 13 AUDIO TITLE "Atari Teenage Riot (Live From Hell 13 - Feat. Rowdy SS)" PERFORMER "Atari Teenage Riot" ISRC GBBXA1401290 INDEX 01 00:00:00

    Лог проверки качества

    -----------------------
    DON'T MODIFY THIS FILE
    -----------------------
    PERFORMER: auCDtect Task Manager, ver. 1.5.1RC6 build 1.5.1.7Copyright (c) 2008-2010 y-soft. All rights reservedhttp://y-soft.org
    ANALYZER: auCDtect: CD records authenticity detector, version 0.8.2Copyright (c) 2004 Oleg Berngardt. All rights reserved.Copyright (c) 2004 Alexander Djourik. All rights reserved.
    FILE: 12 Activate (Live From Hell 13 - Feat. Rowdy SS).flac Size: 32572055 Hash: E39118233EAFB4C41AE898EF04A700B2 Accuracy: -m0 Conclusion: CDDA 100% Signature: C6E288CAB3216FDC8DB9F376F8F9F5121D6AC33BFILE: 11 We Are From the Internet (Dub Instrumental).flac Size: 36221306 Hash: 8509B50E7AF451EBE90DB3C69327EF76 Accuracy: -m0 Conclusion: CDDA 100% Signature: 1612BB3040158FB40F0A0C73A4EDAAAFB4E0ADAFFILE: 10 We Are From the Internet.flac Size: 37170403 Hash: 7B760A49BF09D93A141F96420BADF99F Accuracy: -m0 Conclusion: CDDA 100% Signature: 0539F2E43BEA3AB9C38C22EC1990BC7D89F45D85FILE: 09 Erase Your Face.flac Size: 48231433 Hash: AD07C5CD602332AC5A15104C4EAD211A Accuracy: -m0 Conclusion: CDDA 100% Signature: 6AA7D860D32920CEDDDAA32ADB829DFE0345F8EDFILE: 08 Transducer.flac Size: 43286431 Hash: 2545C24059C516C56F3AED3B72445EF9 Accuracy: -m0 Conclusion: CDDA 100% Signature: C6D58242F30ED2A94AF15ADCB44D1AD91911C8DEFILE: 07 New Blood.flac Size: 32662301 Hash: 9201BCB8328DB462EC2679C879908D0B Accuracy: -m0 Conclusion: CDDA 100% Signature: AD413A36CF4A9B2B3DE203F5674D8CEB4CCCC638FILE: 06 Cra$h.flac Size: 29398759 Hash: AC100675EE34B90B173522E035810081 Accuracy: -m0 Conclusion: CDDA 100% Signature: AE43A183B0DE5C601E10C5145BFBF543C030AEA2FILE: 05 Modern Liars.flac Size: 34146904 Hash: 69AA0A7B38EFE7B939F6432C2A2B766A Accuracy: -m0 Conclusion: CDDA 100% Signature: B4D8D1BEF1F3156CC62CECD01E055DA075EE8766FILE: 04 Death Machine.flac Size: 30364840 Hash: 894A0B616582363E56798C40BA015DD7 Accuracy: -m0 Conclusion: CDDA 100% Signature: 10347DC12E03762FE283DC672B512E36381AE1C2FILE: 03 Reset.flac Size: 36826119 Hash: 995C5EAF38C89F316AD3A3703F76519D Accuracy: -m0 Conclusion: CDDA 100% Signature: FB8D3004AFB3AB53F90EB06812270E8174337864FILE: 02 Street Grime.flac Size: 27118051 Hash: B9AB63E716D98650CD48EC51BCEF0183 Accuracy: -m0 Conclusion: CDDA 100% Signature: A096AB29F4C88A5B560A6C322EC25B01709041CFFILE: 01 J1M1.flac Size: 27840226 Hash: 2750DA20DCBDD5D4A864331B3AE13FB4 Accuracy: -m0 Conclusion: CDDA 100% Signature: 21559F5B47E631C204DDC3BF3A684B4751B326FBFILE: 13 Atari Teenage Riot (Live From Hell 13 - Feat. Rowdy SS).flac Size: 28319017 Hash: 98FA00E48851BEAE77BB02AD9A2849BE Accuracy: -m0 Conclusion: MPEG 89% Signature: 6BB053EB8686299CDAE6FBAB2711CAC4C39FCA7E
    Скачать .torrent

    Скачать торрент-файл бесплатно и на максимальной скорости!

    Как скачивать? · Что такое торрент? · Рейтинг и ограничения

    !ВНИМАНИЕ!
    Сайт не распространяет и не хранит электронные версии произведений, а занимается лишь лишь предоставлением доступа к создаваемому пользователями каталогу ссылок на торрент-файлы, которые содержат только списки хеш-сумм, убедительная просьба с жалобами обращаться напрямую к пользователю. Файлы для обмена на трекере предоставлены пользователями сайта, и администрация не несёт ответственности за их содержание. Просьба не заливать файлы, защищенные авторскими правами, а также файлы нелегального содержания!

    [Профиль] [ЛС]
    Показать сообщения:    
    Ответить на тему

    Текущее время: Сегодня, в 08:30

    Часовой пояс: GMT + 2



    Вы не можете начинать темы
    Вы не можете отвечать на сообщения
    Вы не можете редактировать свои сообщения
    Вы не можете удалять свои сообщения
    Вы не можете голосовать в опросах
    Вы не можете прикреплять файлы к сообщениям
    Вы не можете скачивать файлы