BitTorrentTracker PerecTracker.org
BitTorrentTracker PerecTracker.org
    
Регистрация  ·  Вход
 
 · 
Забыли пароль?

  • (Experimental, Ambient) Lunatic Coffee Machine - Mathsync Company 6501 - 2014, FLAC (image+.cue), lossless

    Ответить на тему
     
    Автор Сообщение

    Columb

    Создавать темы 30-Май-2014 10:35

           

    [Цитировать]

    Lunatic Coffee Machine / Mathsync Company 6501
    Жанр: Experimental, Ambient
    Страна-производитель диска: Россия
    Год издания: 2014
    Издатель (лейбл): Caffeine Records
    Страна: Россия
    Аудиокодек: FLAC (*.flac)
    Тип рипа: image+.cue
    Битрейт аудио: lossless
    Продолжительность: 00:11:15
    Источник (релизер): Lunatic Coffee Machine
    Наличие сканов в содержимом раздачи: нет
    Треклист:
    01. Press Play - 00:36
    02. Alert Alien - 02:29
    03. You Future - 02:37
    04. Return 2 AzTE3 - 03:14
    05. Don't sleep last night - 02:17

    Лог создания рипа

    Exact Audio Copy V1.0 beta 3 from 29. August 2011
    Отчёт EAC об извлечении, выполненном 30. мая 2014, 0:26
    Lunatic Coffee Machine / Mathsync Company 6501
    Дисковод: _NEC DVD_RW ND-3550A Adapter: 1 ID: 0
    Режим чтения : ДостоверностьИспользование точного потока : ДаОтключение кэша аудио : ДаИспользование указателей C2 : Нет
    Коррекция смещения при чтении : 48Способность читать области Lead-in и Lead-out : НетЗаполнение пропущенных сэмплов тишиной : ДаУдаление блоков с тишиной в начале и конце : НетПри вычислениях CRC использовались нулевые сэмплы : ДаИнтерфейс : Встроенный Win32-интерфейс для Win NT/2000
    Выходной формат : Пользовательский кодировщикВыбранный битрейт : 768 kBit/sКачество : ВысокийДобавление ID3-тега : НетУтилита сжатия : C:\Program Files\Exact Audio Copy\FLAC\FLAC.EXEДополнительные параметры : -V -8 -T "Genre=%genre%" -T "Artist=%artist%" -T "Title=%title%" -T "Album=%albumtitle%" -T "Date=%year%" -T "Tracknumber=%tracknr%" -T "Comment=%comment%" %source%
    TOC извлечённого CD
    Трек | Старт | Длительность | Начальный сектор | Конечный сектор --------------------------------------------------------------------- 1 | 0:00.00 | 0:36.52 | 0 | 2751 2 | 0:36.52 | 2:29.51 | 2752 | 13977 3 | 3:06.28 | 2:37.24 | 13978 | 25776 4 | 5:43.52 | 3:14.00 | 25777 | 40326 5 | 8:57.52 | 2:17.45 | 40327 | 50646
    Характеристики диапазона извлечения и сообщения об ошибках
    Выбранный диапазон
    Имя файла C:\Users\marceline\Desktop\Продакшен\На отправку\Mathsync Company 6501\Lunatic Coffee Machine - Mathsync Company 6501.wav
    Пиковый уровень 100.0 % Скорость извлечения 5.6 X Качество диапазона 99.9 % CRC теста 6CF1A2ED CRC копии 6CF1A2ED Копирование... OK
    Ошибок не произошло
    Конец отчёта
    ==== Контрольная сумма отчёта DFC99763DE29CA7B64021390B18D3761A2DEE89C592D447BF63B3848C7883693 ====

    Лог проверки качества

    AUDIOCHECKER v2.0 beta (build 457) - by Dester - opdester@freemail.hu~~~~~~~~~~~~~~~~~~~~~~~~~~~~~~~~~~
    Started at: пятница, 30. 05. 2014. - 0:33.191 file found
    1 -===- C:\Users\marceline\Desktop\Mathsync Company 6501\Lunatic Coffee Machine - Mathsync Company 6501.flac Extracted successfully Conclusion: this track is CDDA with probability 100% Tempfile successfully deleted.
    Finished at: пятница, 30. 05. 2014. - 0:34.10 (operation time: 0:00.50)
    Скачать .torrent

    Скачать торрент-файл бесплатно и на максимальной скорости!

    Как скачивать? · Что такое торрент? · Рейтинг и ограничения

    !ВНИМАНИЕ!
    Сайт не распространяет и не хранит электронные версии произведений, а занимается лишь лишь предоставлением доступа к создаваемому пользователями каталогу ссылок на торрент-файлы, которые содержат только списки хеш-сумм, убедительная просьба с жалобами обращаться напрямую к пользователю. Файлы для обмена на трекере предоставлены пользователями сайта, и администрация не несёт ответственности за их содержание. Просьба не заливать файлы, защищенные авторскими правами, а также файлы нелегального содержания!

    [Профиль] [ЛС]
    Показать сообщения:    
    Ответить на тему

    Текущее время: Сегодня, в 06:06

    Часовой пояс: GMT + 2



    Вы не можете начинать темы
    Вы не можете отвечать на сообщения
    Вы не можете редактировать свои сообщения
    Вы не можете удалять свои сообщения
    Вы не можете голосовать в опросах
    Вы не можете прикреплять файлы к сообщениям
    Вы не можете скачивать файлы