BitTorrentTracker PerecTracker.org
BitTorrentTracker PerecTracker.org
    
Регистрация  ·  Вход
 
 · 
Забыли пароль?

  • (EBM, Electro) Digital Blood - A Retrospective - 1994, FLAC (tracks+.cue), lossless

    Ответить на тему
     
    Автор Сообщение

    Columb

    Создавать темы 30-Май-2014 10:27

           

    [Цитировать]

    Digital Blood / A Retrospective
    Жанр: EBM, Electro
    Страна-производитель диска: France
    Год издания: 1994
    Издатель (лейбл): Boredom Product
    Номер по каталогу: BDM 003
    Страна: France
    Аудиокодек: FLAC (*.flac)
    Тип рипа: tracks+.cue
    Битрейт аудио: lossless
    Продолжительность: 56min 45sec
    Источник (релизер): CD из личной коллекции
    Треклист:
    01. Endless Time 4:42
    02. Near The Frontier 5:12
    03. Carthage Propagande 4:13
    04. Easy Girl 6:40
    05. Paleo Technic Age 5:48
    06. Stop Withstanding 5:58
    07. Space Machine 5:37
    08. Clear Alert 3:24
    09. Factory 3:31
    10. Unknown Lie 2:52
    11. Still Alone 4:22
    12. Plague 4:26

    Лог создания рипа

    Exact Audio Copy V1.0 beta 3 from 29. August 2011
    EAC extraction logfile from 23. April 2014, 16:37
    Digital Blood / A Retrospective
    Used drive : MATSHITADVD-RAM UJ8A0AS Adapter: 1 ID: 0
    Read mode : SecureUtilize accurate stream : YesDefeat audio cache : YesMake use of C2 pointers : No
    Read offset correction : 102Overread into Lead-In and Lead-Out : NoFill up missing offset samples with silence : YesDelete leading and trailing silent blocks : NoNull samples used in CRC calculations : YesUsed interface : Native Win32 interface for Win NT & 2000Gap handling : Appended to previous track
    Used output format : Internal WAV RoutinesSample format : 44.100 Hz; 16 Bit; Stereo
    TOC of the extracted CD
    Track | Start | Length | Start sector | End sector --------------------------------------------------------- 1 | 0:00.00 | 4:42.57 | 0 | 21206 2 | 4:42.57 | 5:12.47 | 21207 | 44653 3 | 9:55.29 | 4:13.59 | 44654 | 63687 4 | 14:09.13 | 6:40.25 | 63688 | 93712 5 | 20:49.38 | 5:48.25 | 93713 | 119837 6 | 26:37.63 | 5:58.29 | 119838 | 146716 7 | 32:36.17 | 5:37.61 | 146717 | 172052 8 | 38:14.03 | 3:24.27 | 172053 | 187379 9 | 41:38.30 | 3:31.51 | 187380 | 203255 10 | 45:10.06 | 2:52.40 | 203256 | 216195 11 | 48:02.46 | 4:22.24 | 216196 | 235869 12 | 52:24.70 | 4:26.19 | 235870 | 255838
    Track 1
    Filename C:\Users\VAIO\Downloads\Digital Blood - A Retrospective (1994)\01 Endless Time.wav
    Pre-gap length 0:00:02.00
    Peak level 72.6 % Extraction speed 2.7 X Track quality 100.0 % Test CRC 38D59D51 Copy CRC 38D59D51 Track not present in AccurateRip database Copy OK
    Track 2
    Filename C:\Users\VAIO\Downloads\Digital Blood - A Retrospective (1994)\02 Near The Frontier.wav
    Pre-gap length 0:00:01.74
    Peak level 74.6 % Extraction speed 3.0 X Track quality 100.0 % Test CRC B5FB1978 Copy CRC B5FB1978 Track not present in AccurateRip database Copy OK
    Track 3
    Filename C:\Users\VAIO\Downloads\Digital Blood ?- A Retrospective (1994)\03 Carthage Propagande.wav
    Pre-gap length 0:00:02.00
    Peak level 100.0 % Extraction speed 3.3 X Track quality 100.0 % Test CRC 23367A66 Copy CRC 23367A66 Track not present in AccurateRip database Copy OK
    Track 4
    Filename C:\Users\VAIO\Downloads\Digital Blood - A Retrospective (1994)\04 Easy Girl.wav
    Pre-gap length 0:00:01.74
    Peak level 82.2 % Extraction speed 3.6 X Track quality 100.0 % Test CRC A91F7A0E Copy CRC A91F7A0E Track not present in AccurateRip database Copy OK
    Track 5
    Filename C:\Users\VAIO\Downloads\Digital Blood - A Retrospective (1994)\05 Paleo Technic Age.wav
    Pre-gap length 0:00:01.74
    Peak level 74.8 % Extraction speed 3.9 X Track quality 100.0 % Test CRC 4049E9B5 Copy CRC 4049E9B5 Track not present in AccurateRip database Copy OK
    Track 6
    Filename C:\Users\VAIO\Downloads\Digital Blood - A Retrospective (1994)\06 Stop Withstanding.wav
    Pre-gap length 0:00:01.74
    Peak level 72.2 % Extraction speed 4.2 X Track quality 100.0 % Test CRC 76ECC6E4 Copy CRC 76ECC6E4 Track not present in AccurateRip database Copy OK
    Track 7
    Filename C:\Users\VAIO\Downloads\Digital Blood ?- A Retrospective (1994)\07 Space Machine.wav
    Pre-gap length 0:00:01.74
    Peak level 64.7 % Extraction speed 4.5 X Track quality 100.0 % Test CRC 157D790D Copy CRC 157D790D Track not present in AccurateRip database Copy OK
    Track 8
    Filename C:\Users\VAIO\Downloads\Digital Blood - A Retrospective (1994)\08 Clear Alert.wav
    Pre-gap length 0:00:01.74
    Peak level 100.0 % Extraction speed 4.6 X Track quality 100.0 % Test CRC B8F03DF0 Copy CRC B8F03DF0 Track not present in AccurateRip database Copy OK
    Track 9
    Filename C:\Users\VAIO\Downloads\Digital Blood - A Retrospective (1994)\09 Factory.wav
    Pre-gap length 0:00:01.74
    Peak level 100.0 % Extraction speed 4.7 X Track quality 100.0 % Test CRC 44E4DFE1 Copy CRC 44E4DFE1 Track not present in AccurateRip database Copy OK
    Track 10
    Filename C:\Users\VAIO\Downloads\Digital Blood ?- A Retrospective (1994)\10 Unknown Lie.wav
    Pre-gap length 0:00:01.74
    Peak level 100.0 % Extraction speed 4.8 X Track quality 100.0 % Test CRC D7D1A44F Copy CRC D7D1A44F Track not present in AccurateRip database Copy OK
    Track 11
    Filename C:\Users\VAIO\Downloads\Digital Blood - A Retrospective (1994)\11 Still Alone.wav
    Pre-gap length 0:00:01.74
    Peak level 90.2 % Extraction speed 5.0 X Track quality 100.0 % Test CRC 1E084100 Copy CRC 1E084100 Track not present in AccurateRip database Copy OK
    Track 12
    Filename C:\Users\VAIO\Downloads\Digital Blood - A Retrospective (1994)\12 Plague.wav
    Pre-gap length 0:00:01.74
    Peak level 65.4 % Extraction speed 5.1 X Track quality 99.9 % Test CRC 318D2AB4 Copy CRC 318D2AB4 Track not present in AccurateRip database Copy OK
    None of the tracks are present in the AccurateRip database
    No errors occurred
    End of status report
    ==== Log checksum 337CB9FDAB71334EDB815687E5D1EFC4BDB5DF4B6868096D405D7F3DCA610C68 ====

    Содержание индексной карты (.CUE)

    REM GENRE EBMREM DATE 1994REM DISCID B50D530CREM COMMENT "ExactAudioCopy v1.0b3"PERFORMER "Digital Blood"TITLE "A Retrospective"FILE "Digital Blood - A Retrospective.wav" WAVE TRACK 01 AUDIO TITLE "Endless Time" PERFORMER "Digital Blood" INDEX 01 00:00:00 TRACK 02 AUDIO TITLE "Near The Frontier" PERFORMER "Digital Blood" INDEX 00 04:40:58 INDEX 01 04:42:57 TRACK 03 AUDIO TITLE "Carthage Propagande" PERFORMER "Digital Blood" INDEX 00 09:53:29 INDEX 01 09:55:29 TRACK 04 AUDIO TITLE "Easy Girl" PERFORMER "Digital Blood" INDEX 00 14:07:14 INDEX 01 14:09:13 TRACK 05 AUDIO TITLE "Paleo Technic Age" PERFORMER "Digital Blood" INDEX 00 20:47:39 INDEX 01 20:49:38 TRACK 06 AUDIO TITLE "Stop Withstanding" PERFORMER "Digital Blood" INDEX 00 26:35:64 INDEX 01 26:37:63 TRACK 07 AUDIO TITLE "Space Machine" PERFORMER "Digital Blood" INDEX 00 32:34:18 INDEX 01 32:36:17 TRACK 08 AUDIO TITLE "Clear Alert" PERFORMER "Digital Blood" INDEX 00 38:12:04 INDEX 01 38:14:03 TRACK 09 AUDIO TITLE "Factory" PERFORMER "Digital Blood" INDEX 00 41:36:31 INDEX 01 41:38:30 TRACK 10 AUDIO TITLE "Unknown Lie" PERFORMER "Digital Blood" INDEX 00 45:08:07 INDEX 01 45:10:06 TRACK 11 AUDIO TITLE "Still Alone" PERFORMER "Digital Blood" INDEX 00 48:00:47 INDEX 01 48:02:46 TRACK 12 AUDIO TITLE "Plague" PERFORMER "Digital Blood" INDEX 00 52:22:71 INDEX 01 52:24:70

    Лог проверки качества

    AUDIOCHECKER v2.0 beta (build 457) - by Dester - opdester@freemail.hu~~~~~~~~~~~~~~~~~~~~~~~~~~~~~~~~~~
    Started at: четверг, 29. 05. 2014. - 18:04.3412 files found
    01 -===- C:\Users\VAIO\Downloads\Digital Blood - A Retrospective (1994)\01 Endless Time.flac Extracted successfully Conclusion: this track is CDDA with probability 100% Tempfile successfully deleted.
    02 -===- C:\Users\VAIO\Downloads\Digital Blood - A Retrospective (1994)\02 Near The Frontier.flac Extracted successfully Conclusion: this track is CDDA with probability 100% Tempfile successfully deleted.
    03 -===- C:\Users\VAIO\Downloads\Digital Blood - A Retrospective (1994)\03 Carthage Propagande.flac Extracted successfully Conclusion: this track is CDDA with probability 100% Tempfile successfully deleted.
    04 -===- C:\Users\VAIO\Downloads\Digital Blood - A Retrospective (1994)\04 Easy Girl.flac Extracted successfully Conclusion: this track is CDDA with probability 100% Tempfile successfully deleted.
    05 -===- C:\Users\VAIO\Downloads\Digital Blood - A Retrospective (1994)\05 Paleo Technic Age.flac Extracted successfully Conclusion: this track is CDDA with probability 100% Tempfile successfully deleted.
    06 -===- C:\Users\VAIO\Downloads\Digital Blood - A Retrospective (1994)\06 Stop Withstanding.flac Extracted successfully Conclusion: this track is CDDA with probability 99% Tempfile successfully deleted.
    07 -===- C:\Users\VAIO\Downloads\Digital Blood - A Retrospective (1994)\07 Space Machine.flac Extracted successfully Conclusion: this track is CDDA with probability 100% Tempfile successfully deleted.
    08 -===- C:\Users\VAIO\Downloads\Digital Blood - A Retrospective (1994)\08 Clear Alert.flac Extracted successfully Conclusion: this track is CDDA with probability 100% Tempfile successfully deleted.
    09 -===- C:\Users\VAIO\Downloads\Digital Blood - A Retrospective (1994)\09 Factory.flac Extracted successfully Conclusion: this track is CDDA with probability 100% Tempfile successfully deleted.
    10 -===- C:\Users\VAIO\Downloads\Digital Blood - A Retrospective (1994)\10 Unknown Lie.flac Extracted successfully Conclusion: this track is CDDA with probability 100% Tempfile successfully deleted.
    11 -===- C:\Users\VAIO\Downloads\Digital Blood - A Retrospective (1994)\11 Still Alone.flac Extracted successfully Conclusion: this track is CDDA with probability 100% Tempfile successfully deleted.
    12 -===- C:\Users\VAIO\Downloads\Digital Blood - A Retrospective (1994)\12 Plague.flac Extracted successfully Conclusion: this track is CDDA with probability 100% Tempfile successfully deleted.
    Finished at: четверг, 29. 05. 2014. - 18:10.45 (operation time: 0:06.10)
    Скачать .torrent

    Скачать торрент-файл бесплатно и на максимальной скорости!

    Как скачивать? · Что такое торрент? · Рейтинг и ограничения

    !ВНИМАНИЕ!
    Сайт не распространяет и не хранит электронные версии произведений, а занимается лишь лишь предоставлением доступа к создаваемому пользователями каталогу ссылок на торрент-файлы, которые содержат только списки хеш-сумм, убедительная просьба с жалобами обращаться напрямую к пользователю. Файлы для обмена на трекере предоставлены пользователями сайта, и администрация не несёт ответственности за их содержание. Просьба не заливать файлы, защищенные авторскими правами, а также файлы нелегального содержания!

    [Профиль] [ЛС]
    Показать сообщения:    
    Ответить на тему

    Текущее время: Сегодня, в 20:49

    Часовой пояс: GMT + 2



    Вы не можете начинать темы
    Вы не можете отвечать на сообщения
    Вы не можете редактировать свои сообщения
    Вы не можете удалять свои сообщения
    Вы не можете голосовать в опросах
    Вы не можете прикреплять файлы к сообщениям
    Вы не можете скачивать файлы