BitTorrentTracker PerecTracker.org
BitTorrentTracker PerecTracker.org
    
Регистрация  ·  Вход
 
 · 
Забыли пароль?

  • Грабители / Inside Men / Сезон: 1 / Серии: 1-4 из 4 (Джеймс Кент) [2012, Драма, криминал, экшн, HDTV 1080i] MVO (Русский репортаж)

    Ответить на тему
     
    Автор Сообщение

    Columb

    Создавать темы 29-Май-2014 17:18

           

    [Цитировать]

    -Грабители / Inside Men--Год выпуска: 2012
    Страна: Великобритания
    Жанр: Драма, криминал, экшн
    Продолжительность: 4 x ~ 00:54:00-Перевод : Профессиональный (многоголосый закадровый) Русский репортаж
    Режиссёр: Джеймс Кент
    В ролях: Стивен Макинтош, Уоррен Браун, Николя Уолкер, Эшли Уолтерс, Ханна Мерри, Лейла Миммек, Кирстон Вэрэйнг, Пол Попплуэлл, Ребека Стэтон, Грегг Чиллин-Описание:
    Что делать, если у тебя на работе маленькая должность, дома нет ничего хорошего, в кармане денег едва хватает на оплату счетов? И так каждый месяц, одно и тоже. И вот наступает момент, когда ты понимаешь, что жить так больше нельзя. Надо что-то менять. И как хорошо, что есть еще кто-то, кто думает точно также! Теперь ты не один. Вас двое. И можно что-нибудь придумать, чтобы изменить свою жизнь. Для начала - разбогатеть. Но где взять деньги? А может пойти на ограбление? А почему бы и нет?-Качество: HDTV 1080i
    Контейнер: TS
    Видео: 1920x1080 at 25 fps, x264, ~6842 kbps avg
    Аудио 1: Russian: 48 kHz, AC3, 2/0 (L,R) ch, ~192.00 kbps avg |Многоголосый закадровый|
    Аудио 2: Russian: 48 kHz, AC3, 3/2 (L,C,R,l,r) + LFE ch, ~448.00 kbps avg |Многоголосый закадровый|
    Субтитры: отсутствуют- by HPotter
    - Спасибо 13napas и Beer kolesik Drinkers.
    - 5.1 Дутый.-Сэмпл / ImDB / Кинопоиск
    -

    Список серий

    01: Эпизод #1.1 / Episode #1.1
    02: Эпизод #1.2 / Episode #1.2
    03: Эпизод #1.3 / Episode #1.3
    04: Эпизод #1.4 / Episode #1.4

    MediaInfo

    Общее
    Идентификатор : 203 (0xCB)
    Полное имя : Inside.Men.2012.1080i.HDTV.Rus.HDCLUB\Inside.Men.E03.1080i.HDTV.Rus.HDCLUB.ts
    Формат : MPEG-TS
    Размер файла : 2,70 Гбайт
    Продолжительность : 53 м.
    Режим общего битрейта : Переменный
    Общий поток : 7253 Кбит/сек
    Видео
    Идентификатор : 3021 (0xBCD)
    Идентификатор меню : 3002 (0xBBA)
    Формат : AVC
    Формат/Информация : Advanced Video Codec
    Профиль формата : Main@L4.0
    Параметр CABAC формата : Да
    Параметр ReFrames формата : 3 кадра
    Идентификатор кодека : 27
    Продолжительность : 53 м.
    Битрейт : 6248 Кбит/сек
    Ширина : 1920 пикселей
    Высота : 1080 пикселей
    Соотношение сторон : 16:9
    Частота кадров : 25,000 кадров/сек
    Стандарт вещания : Component
    Цветовое пространство : YUV
    Субдискретизация насыщенности : 4:2:0
    Битовая глубина : 8 бит
    Тип развёртки : Чересстрочная
    Порядок развёртки : Верхнее поле первое
    Бит/(Пиксели*Кадры) : 0.121
    Размер потока : 2,32 Гбайт (86%)
    Основные цвета : BT.709
    Характеристики трансфера : BT.709
    Коэффициенты матрицы : BT.709
    Аудио #1
    Идентификатор : 3022 (0xBCE)
    Идентификатор меню : 3002 (0xBBA)
    Формат : MPEG Audio
    Версия формата : Version 1
    Профиль формата : Layer 2
    Идентификатор кодека : 4
    Продолжительность : 53 м.
    Вид битрейта : Постоянный
    Битрейт : 192 Кбит/сек
    Каналы : 2 канала
    Частота : 48,0 КГц
    Метод сжатия : С потерями
    Задержка видео : -420 мс.
    Размер потока : 73,1 Мбайт (3%)
    Язык : Russian
    Аудио #2
    Идентификатор : 3023 (0xBCF)
    Идентификатор меню : 3002 (0xBBA)
    Формат : AC-3
    Формат/Информация : Audio Coding 3
    Расширение режима : CM (complete main)
    Параметр Endianness формата : Big
    Идентификатор кодека : 6
    Продолжительность : 53 м.
    Вид битрейта : Постоянный
    Битрейт : 448 Кбит/сек
    Каналы : 6 каналов
    Расположение каналов : Front: L C R, Side: L R, LFE
    Частота : 48,0 КГц
    Битовая глубина : 16 бит
    Метод сжатия : С потерями
    Задержка видео : -422 мс.
    Размер потока : 170 Мбайт (6%)
    Язык : Russian
    Меню
    Идентификатор : 3020 (0xBCC)
    Идентификатор меню : 3002 (0xBBA)
    Продолжительность : 53 м.
    Список : 3021 (0xBCD) (AVC) / 3022 (0xBCE) (MPEG Audio, Russian) / 3023 (0xBCF) (AC-3, Russian)
    Язык : / Russian / Russian

    Скриншоты


    Скачать .torrent

    Скачать торрент-файл бесплатно и на максимальной скорости!

    Как скачивать? · Что такое торрент? · Рейтинг и ограничения

    !ВНИМАНИЕ!
    Сайт не распространяет и не хранит электронные версии произведений, а занимается лишь лишь предоставлением доступа к создаваемому пользователями каталогу ссылок на торрент-файлы, которые содержат только списки хеш-сумм, убедительная просьба с жалобами обращаться напрямую к пользователю. Файлы для обмена на трекере предоставлены пользователями сайта, и администрация не несёт ответственности за их содержание. Просьба не заливать файлы, защищенные авторскими правами, а также файлы нелегального содержания!

    [Профиль] [ЛС]
    Показать сообщения:    
    Ответить на тему

    Текущее время: Сегодня, в 18:02

    Часовой пояс: GMT + 2



    Вы не можете начинать темы
    Вы не можете отвечать на сообщения
    Вы не можете редактировать свои сообщения
    Вы не можете удалять свои сообщения
    Вы не можете голосовать в опросах
    Вы не можете прикреплять файлы к сообщениям
    Вы не можете скачивать файлы