BitTorrentTracker PerecTracker.org
BitTorrentTracker PerecTracker.org
    
Регистрация  ·  Вход
 
 · 
Забыли пароль?

  • Русский пророк преподобный Авель (Анна Москвина) [2012 г., Православные подвижники благочестия, DVDRip]

    Ответить на тему
     
    Автор Сообщение

    Columb

    Создавать темы 29-Май-2014 17:04

           

    [Цитировать]

    Русский пророк преподобный Авель
    Год выпуска: 2012
    Страна: Россия
    Жанр: Православные подвижники благочестия
    Продолжительность: 00:55:25
    Перевод: Не требуется
    Русские субтитры: нет
    Оригинальная аудиодорожка: русский
    Режиссер: А. Москвина
    Описание: Русскому святому монаху Авелю Тайновидцу (в миру Василию Васильеву) были открыта грядущая катастрофа и воскресении России. В фильме подробно описываются основные этапы его жития, касающихся бесед с Русскими Царями, особенно с Царем-Мучеником Павлом Первым. Монах Авель предсказал искупительный подвиг Царя Николая Второго, благодаря которому в конце времен Господь Бог воскресит Святую Русь явлением Царя-победителя. Об этом свидетельствует и недавно найденная икона.
    Доп. информация: Рип сделан с этого исходника: http://perectracker.org/viewtopic.php?p=8771#8771
    Сэмпл: http://www.sendspace.com/file/k3j80j
    Качество: DVDRip
    Формат: AVI
    Видео: 1232 Кбит/сек, 688*528 (4:3), в 25,000 кадров/сек, XviD
    Аудио: Русский, 224 Кбит/сек, 48,0 КГц, 2 канала, MPEG Audio

    MediaInfo

    ОбщееПолное имя : F:\MONAR.RU\Видео\Святые Вселенского Православия\Русский пророк преподобный Авель.aviФормат : AVIФормат/Информация : Audio Video InterleaveРазмер файла : 544 МбайтПродолжительность : 55 м.Общий поток : 1373 Кбит/сек
    ВидеоИдентификатор : 0Формат : MPEG-4 VisualПрофиль формата : Advanced Simple@L5Параметр BVOP формата : 2Параметр QPel формата : НетПараметр GMC формата : Без точки переходаПараметр матрицы формата : ВыборочнаяИдентификатор кодека : XVIDИдентификатор кодека/Подсказка : XviDПродолжительность : 55 м.Битрейт : 1232 Кбит/секШирина : 688 пикселейВысота : 528 пикселейСоотношение сторон : 4:3Частота кадров : 25,000 кадров/секЦветовое пространство : YUVСубдискретизация насыщенности : 4:2:0Битовая глубина : 8 битТип развёртки : ПрогрессивнаяМетод сжатия : С потерямиБит/(Пиксели*Кадры) : 0.136Размер потока : 488 Мбайт (90%)Библиотека кодирования : XviD 1.2.1 (UTC 2008-12-04)
    АудиоИдентификатор : 1Формат : MPEG AudioВерсия формата : Version 1Профиль формата : Layer 3Идентификатор кодека : 55Идентификатор кодека/Подсказка : MP3Продолжительность : 55 м.Продолжительность оригинала : 55 м.Вид битрейта : ПостоянныйБитрейт : 128 Кбит/секКаналы : 2 каналаЧастота : 48,0 КГцМетод сжатия : С потерямиРазмер потока : 50,7 Мбайт (9%)Выравнивание : Разделение по промежуткамПродолжительность промежутка : 24 мс. (0,60 видеокадр)

    Скриншоты

    Скачать .torrent

    Скачать торрент-файл бесплатно и на максимальной скорости!

    Как скачивать? · Что такое торрент? · Рейтинг и ограничения

    !ВНИМАНИЕ!
    Сайт не распространяет и не хранит электронные версии произведений, а занимается лишь лишь предоставлением доступа к создаваемому пользователями каталогу ссылок на торрент-файлы, которые содержат только списки хеш-сумм, убедительная просьба с жалобами обращаться напрямую к пользователю. Файлы для обмена на трекере предоставлены пользователями сайта, и администрация не несёт ответственности за их содержание. Просьба не заливать файлы, защищенные авторскими правами, а также файлы нелегального содержания!

    [Профиль] [ЛС]
    Показать сообщения:    
    Ответить на тему

    Текущее время: Сегодня, в 14:03

    Часовой пояс: GMT + 2



    Вы не можете начинать темы
    Вы не можете отвечать на сообщения
    Вы не можете редактировать свои сообщения
    Вы не можете удалять свои сообщения
    Вы не можете голосовать в опросах
    Вы не можете прикреплять файлы к сообщениям
    Вы не можете скачивать файлы