BitTorrentTracker PerecTracker.org
BitTorrentTracker PerecTracker.org
    
Регистрация  ·  Вход
 
 · 
Забыли пароль?

  • Русский пророк преподобный Авель (Анна Москвина) [2012 г., Православные подвижники благочестия, DVD5]

    Ответить на тему
     
    Автор Сообщение

    Columb

    Создавать темы 29-Май-2014 17:01

           

    [Цитировать]

    Русский пророк преподобный Авель
    Год выпуска: 2012
    Страна: Россия
    Жанр: Православные подвижники благочестия
    Продолжительность: 00:55:25
    Перевод: Не требуется
    Русские субтитры: нет
    Оригинальная аудиодорожка: русский
    Режиссер: А. Москвина
    Описание: Русскому святому монаху Авелю Тайновидцу (в миру Василию Васильеву) были открыта грядущая катастрофа и воскресении России. В фильме подробно описываются основные этапы его жития, касающихся бесед с Русскими Царями, особенно с Царем-Мучеником Павлом Первым. Монах Авель предсказал искупительный подвиг Царя Николая Второго, благодаря которому в конце времен Господь Бог воскресит Святую Русь явлением Царя-победителя.
    Доп. информация: Меню и обложки нет.
    Сэмпл: http://www.sendspace.com/file/52bio7
    Качество: DVD5
    Формат: DVD Video
    Видео: 4469 Кбит/сек, 720*576 (4:3), в 25,000 кадров/сек, MPEG2
    Аудио: Русский, 224 Кбит/сек, 48,0 КГц, 2 канала, MPEG Audio

    DVDInfo

    Title: Data2Size: 1.85 Gb ( 1 941 142 KBytes ) - DVD-5Enabled regions: 1, 2, 3, 4, 5, 6, 7, 8
    VTS_01 : Play Length: 00:55:25 Video: PAL 4:3 (720x576) VBR Audio: Russian (MPEG1, 2 ch)
    Menu Video: PAL 4:3 (720x576) VBR Auto Pan&Scan, Auto LetterboxedMenu Language Unit : Root Menu

    MediaInfo

    ОбщееПолное имя : F:\MONAR.RU\Видео\Святые Вселенского Православия\Русский пророк преподобный Авель\VIDEO_TS\VIDEO_TS.BUPФормат : DVD VideoПрофиль формата : MenuРазмер файла : 8,00 КбайтРежим общего битрейта : Переменный
    ВидеоИдентификатор : 224 (0xE0)Формат : MPEG VideoВерсия формата : Version 1Вид битрейта : ПеременныйШирина : 720 пикселейВысота : 576 пикселейСоотношение сторон : 4:3Частота кадров : 25,000 кадров/секСтандарт вещания : PALМетод сжатия : С потерями
    ОбщееПолное имя : F:\MONAR.RU\Видео\Святые Вселенского Православия\Русский пророк преподобный Авель\VIDEO_TS\VIDEO_TS.IFOФормат : DVD VideoПрофиль формата : MenuРазмер файла : 8,00 КбайтРежим общего битрейта : Переменный
    ВидеоИдентификатор : 224 (0xE0)Формат : MPEG VideoВерсия формата : Version 1Вид битрейта : ПеременныйШирина : 720 пикселейВысота : 576 пикселейСоотношение сторон : 4:3Частота кадров : 25,000 кадров/секСтандарт вещания : PALМетод сжатия : С потерями
    ОбщееПолное имя : F:\MONAR.RU\Видео\Святые Вселенского Православия\Русский пророк преподобный Авель\VIDEO_TS\VIDEO_TS.VOBФормат : MPEG-PSРазмер файла : 44,0 КбайтПродолжительность : 158 мс.Общий поток : 2281 Кбит/сек
    ВидеоИдентификатор : 224 (0xE0)Формат : MPEG VideoВерсия формата : Version 2Профиль формата : Main@MainПараметр BVOP формата : НетПараметр матрицы формата : ВыборочнаяПродолжительность : 40 мс.Максимальный битрейт : 8000 Кбит/секШирина : 720 пикселейВысота : 576 пикселейСоотношение сторон : 4:3Частота кадров : 25,000 кадров/секСтандарт вещания : PALЦветовое пространство : YUVСубдискретизация насыщенности : 4:2:0Битовая глубина : 8 битТип развёртки : ПрогрессивнаяПорядок развёртки : Нижнее поле первоеМетод сжатия : С потерямиВременной код первого кадра : 00:00:00:00Оригинал временного кода : Group of pictures headerОсновные цвета : BT.601 NTSCХарактеристики трансфера : BT.601Коэффициенты матрицы : BT.601
    АудиоИдентификатор : 189 (0xBD)-160 (0xA0)Формат : PCMПараметр Endianness формата : BigПараметр Sign формата : SignedРежим смешивания : DVD-VideoПродолжительность : 158 мс.Вид битрейта : ПостоянныйБитрейт : 1536 Кбит/секКаналы : 2 каналаЧастота : 48,0 КГцБитовая глубина : 16 битРазмер потока : 29,6 Кбайт (67%)
    Меню
    ОбщееПолное имя : F:\MONAR.RU\Видео\Святые Вселенского Православия\Русский пророк преподобный Авель\VIDEO_TS\VTS_01_0.BUPФормат : DVD VideoПрофиль формата : ProgramРазмер файла : 46,0 КбайтПродолжительность : 55 м.Режим общего битрейта : ПеременныйОбщий поток : 113 бит/сек
    ВидеоИдентификатор : 224 (0xE0)Формат : MPEG VideoВерсия формата : Version 2Продолжительность : 55 м.Вид битрейта : ПеременныйШирина : 720 пикселейВысота : 576 пикселейСоотношение сторон : 4:3Частота кадров : 25,000 кадров/секСтандарт вещания : PALМетод сжатия : С потерями
    АудиоИдентификатор : 0 (0x0)Формат : MPEG AudioПрофиль формата : Version 1Продолжительность : 55 м.Каналы : 2 каналаЧастота : 48,0 КГцМетод сжатия : С потерямиЯзык : Russian
    МенюПродолжительность : 55 м.00:00:00.000 : Chapter 1List (Audio) : 0
    ОбщееПолное имя : F:\MONAR.RU\Видео\Святые Вселенского Православия\Русский пророк преподобный Авель\VIDEO_TS\VTS_01_0.IFOФормат : DVD VideoПрофиль формата : ProgramРазмер файла : 46,0 КбайтПродолжительность : 55 м.Режим общего битрейта : ПеременныйОбщий поток : 113 бит/сек
    ВидеоИдентификатор : 224 (0xE0)Формат : MPEG VideoВерсия формата : Version 2Продолжительность : 55 м.Вид битрейта : ПеременныйШирина : 720 пикселейВысота : 576 пикселейСоотношение сторон : 4:3Частота кадров : 25,000 кадров/секСтандарт вещания : PALМетод сжатия : С потерями
    АудиоИдентификатор : 0 (0x0)Формат : MPEG AudioПрофиль формата : Version 1Продолжительность : 55 м.Каналы : 2 каналаЧастота : 48,0 КГцМетод сжатия : С потерямиЯзык : Russian
    МенюПродолжительность : 55 м.00:00:00.000 : Chapter 1List (Audio) : 0
    ОбщееПолное имя : F:\MONAR.RU\Видео\Святые Вселенского Православия\Русский пророк преподобный Авель\VIDEO_TS\VTS_01_1.VOBФормат : MPEG-PSРазмер файла : 1024 МбайтПродолжительность : 29 м.Режим общего битрейта : ПеременныйОбщий поток : 4788 Кбит/сек
    ВидеоИдентификатор : 224 (0xE0)Формат : MPEG VideoВерсия формата : Version 2Профиль формата : Main@MainПараметр BVOP формата : ДаПараметр матрицы формата : ВыборочнаяПараметр GOP формата : M=3, N=12Продолжительность : 29 м.Вид битрейта : ПеременныйБитрейт : 4469 Кбит/секМаксимальный битрейт : 8500 Кбит/секШирина : 720 пикселейВысота : 576 пикселейСоотношение сторон : 4:3Частота кадров : 25,000 кадров/секСтандарт вещания : PALЦветовое пространство : YUVСубдискретизация насыщенности : 4:2:0Битовая глубина : 8 битТип развёртки : ЧересстрочнаяПорядок развёртки : Верхнее поле первоеМетод сжатия : С потерямиБит/(Пиксели*Кадры) : 0.431Временной код первого кадра : 00:00:00:00Оригинал временного кода : Group of pictures headerРазмер потока : 956 Мбайт (93%)Основные цвета : BT.601 PALХарактеристики трансфера : BT.470 System B, BT.470 System GКоэффициенты матрицы : BT.601
    АудиоИдентификатор : 192 (0xC0)Формат : MPEG AudioВерсия формата : Version 1Профиль формата : Layer 2Продолжительность : 29 м.Вид битрейта : ПостоянныйБитрейт : 224 Кбит/секКаналы : 2 каналаЧастота : 48,0 КГцМетод сжатия : С потерямиРазмер потока : 47,9 Мбайт (5%)
    Меню
    ОбщееПолное имя : F:\MONAR.RU\Видео\Святые Вселенского Православия\Русский пророк преподобный Авель\VIDEO_TS\VTS_01_2.VOBФормат : MPEG-PSРазмер файла : 872 МбайтПродолжительность : 25 м.Режим общего битрейта : ПеременныйОбщий поток : 4774 Кбит/сек
    ВидеоИдентификатор : 224 (0xE0)Формат : MPEG VideoВерсия формата : Version 2Профиль формата : Main@MainПараметр BVOP формата : ДаПараметр матрицы формата : ВыборочнаяПараметр GOP формата : VariableПродолжительность : 25 м.Вид битрейта : ПеременныйБитрейт : 4455 Кбит/секМаксимальный битрейт : 8500 Кбит/секШирина : 720 пикселейВысота : 576 пикселейСоотношение сторон : 4:3Частота кадров : 25,000 кадров/секСтандарт вещания : PALЦветовое пространство : YUVСубдискретизация насыщенности : 4:2:0Битовая глубина : 8 битТип развёртки : ЧересстрочнаяПорядок развёртки : Верхнее поле первоеМетод сжатия : С потерямиБит/(Пиксели*Кадры) : 0.430Размер потока : 813 Мбайт (93%)Основные цвета : BT.601 PALХарактеристики трансфера : BT.470 System B, BT.470 System GКоэффициенты матрицы : BT.601
    АудиоИдентификатор : 192 (0xC0)Формат : MPEG AudioВерсия формата : Version 1Профиль формата : Layer 2Продолжительность : 25 м.Вид битрейта : ПостоянныйБитрейт : 224 Кбит/секКаналы : 2 каналаЧастота : 48,0 КГцМетод сжатия : С потерямиЗадержка видео : -648 мс.Размер потока : 40,9 Мбайт (5%)
    Меню

    Скриншоты

    Анаморфированные скриншоты

    Диск

    Скачать .torrent

    Скачать торрент-файл бесплатно и на максимальной скорости!

    Как скачивать? · Что такое торрент? · Рейтинг и ограничения

    !ВНИМАНИЕ!
    Сайт не распространяет и не хранит электронные версии произведений, а занимается лишь лишь предоставлением доступа к создаваемому пользователями каталогу ссылок на торрент-файлы, которые содержат только списки хеш-сумм, убедительная просьба с жалобами обращаться напрямую к пользователю. Файлы для обмена на трекере предоставлены пользователями сайта, и администрация не несёт ответственности за их содержание. Просьба не заливать файлы, защищенные авторскими правами, а также файлы нелегального содержания!

    [Профиль] [ЛС]
    Показать сообщения:    
    Ответить на тему

    Текущее время: Сегодня, в 08:51

    Часовой пояс: GMT + 2



    Вы не можете начинать темы
    Вы не можете отвечать на сообщения
    Вы не можете редактировать свои сообщения
    Вы не можете удалять свои сообщения
    Вы не можете голосовать в опросах
    Вы не можете прикреплять файлы к сообщениям
    Вы не можете скачивать файлы