BitTorrentTracker PerecTracker.org
BitTorrentTracker PerecTracker.org
    
Регистрация  ·  Вход
 
 · 
Забыли пароль?

  • Жacмiн / Вluе Jаsminе (Byдi Aллeн / Wооdу Аllеn) [2013, США, драма, комедия, DVD5] R5 Dub

    Ответить на тему
     
    Автор Сообщение

    Columb

    Создавать темы 29-Май-2014 16:51

           

    [Цитировать]

    -Жасмин / Blue Jasmine-Страна: США
    Студия: Perdido Productions
    Жанр: драма, комедия,
    Год выпуска: 2013
    Мировая премьера: 26 июля 2013
    Российская премьера: 26 сентября 2013, «Централ Партнершип»
    Украинская премьера: 26 сентября 2013, «Централ Партнершип», «Интерфильм»
    Дата выхода DVD: 29 мая 2014, «CD Land»
    Дата выхода Blu-Ray: 29 мая 2014, «CD Land»
    Продолжительность: 01:34:04
    Перевод: Профессиональный (дублированный) [Лицензия]
    Cубтитры: нет
    Оригинальная аудиодорожка: нет-Режиссер: Вуди Аллен / Woody Allen-В ролях: Кейт Бланшетт, Салли Хокинс, Алек Болдуин, Бобби Каннавале, Питер Сарсгаард, Луис С.К., Эндрю Дайс Клэй, Дэниэл Дженкс, Майкл Стулбарг, Макс Рутерфорд...-Описание: После того как все в ее жизни разваливается на части, в том числе и брак с богатым бизнесменом, светская жительница Нью-Йорка Жасмин переезжает в скромную квартиру сестры в Сан-Франциско, чтобы попытаться взять себя в руки и жить дальше.-Бонусы: нет- -Релиз группы:-Качество: DVD5 R5
    Формат: DVD-Video
    Видео кодек: MPEG2
    Аудио кодек: AC3
    Видео: PAL 16:9 (720x576(0.579)) MPEG Video, 25,000 кадр/сек, 6004 Кбит/сек
    Аудио: Russian (Dolby AC3, 6 ch) 448 Кбит/сек, 48,0 КГц--

    DVDInfo

    Title: Zhasmin.2013.DVD5
    Size: 4.33 Gb ( 4 535 760,00 KBytes ) - DVD-5
    Enabled regions: 1, 2, 3, 4, 5, 6, 7, 8
    VTS_01 :
    Play Length: 00:00:19
    Video: PAL 4:3 (720x576) VBR
    Audio:
    Not specified (Dolby AC3, 2 ch)
    VTS_02 :
    Play Length: 00:00:15
    Video: PAL 16:9 (720x576) VBR, Auto Letterboxed
    Audio:
    Not specified (Dolby AC3, 2 ch)
    VTS_03 :
    Play Length: 01:34:04
    Video: PAL 16:9 (720x576) VBR, Auto Letterboxed
    Audio:
    Russian (Dolby AC3, 6 ch)
    * Menus Information *
    VIDEO_TS Menu
    Video:
    PAL 16:9 (720x576) VBR
    Auto Pan&Scan, Auto Letterboxed
    English Language Unit :
    Title Menu
    VTS_01 Menu
    Video:
    PAL 16:9 (720x576) VBR
    Auto Letterboxed
    Audio:
    Not specified (Dolby AC3, 2 ch)
    English Language Unit :
    Root Menu
    VTS_02 Menu
    Video:
    PAL 4:3 (720x576) VBR
    English Language Unit :
    Root Menu
    VTS_03 Menu
    Video:
    PAL 4:3 (720x576) VBR
    English Language Unit :
    Root Menu

    MediaInfo

    Общее
    Полное имя : D:\Новинки 2014\Zhasmin.2013.DVD5\VIDEO_TS\VTS_03_1.VOB
    Формат : MPEG-PS
    Размер файла : 1024 Мбайт
    Продолжительность : 21 м.
    Режим общего битрейта : Переменный
    Общий поток : 6583 Кбит/сек
    Видео
    Идентификатор : 224 (0xE0)
    Формат : MPEG Video
    Версия формата : Version 2
    Профиль формата : Main@Main
    Параметр BVOP формата : Да
    Параметр матрицы формата : По умолчанию
    Параметр GOP формата : M=3, N=12
    Продолжительность : 21 м.
    Вид битрейта : Переменный
    Битрейт : 6004 Кбит/сек
    Максимальный битрейт : 8000 Кбит/сек
    Ширина : 720 пикселей
    Высота : 576 пикселей
    Соотношение сторон : 16:9
    Частота кадров : 25,000 кадров/сек
    Стандарт вещания : PAL
    Цветовое пространство : YUV
    Субдискретизация насыщенности : 4:2:0
    Битовая глубина : 8 бит
    Тип развёртки : Прогрессивная
    Метод сжатия : С потерями
    Бит/(Пиксели*Кадры) : 0.579
    Временной код первого кадра : 00:00:00:00
    Оригинал временного кода : Group of pictures header
    Размер потока : 934 Мбайт (91%)
    Аудио
    Идентификатор : 189 (0xBD)-128 (0x80)
    Формат : AC-3
    Формат/Информация : Audio Coding 3
    Расширение режима : CM (complete main)
    Параметр Endianness формата : Big
    Режим смешивания : DVD-Video
    Продолжительность : 21 м.
    Вид битрейта : Постоянный
    Битрейт : 448 Кбит/сек
    Каналы : 6 каналов
    Расположение каналов : Front: L C R, Side: L R, LFE
    Частота : 48,0 КГц
    Битовая глубина : 16 бит
    Метод сжатия : С потерями
    Размер потока : 69,7 Мбайт (7%)

    Скриншоты меню

    Скриншоты фильма

    --
    Скачать .torrent

    Скачать торрент-файл бесплатно и на максимальной скорости!

    Как скачивать? · Что такое торрент? · Рейтинг и ограничения

    !ВНИМАНИЕ!
    Сайт не распространяет и не хранит электронные версии произведений, а занимается лишь лишь предоставлением доступа к создаваемому пользователями каталогу ссылок на торрент-файлы, которые содержат только списки хеш-сумм, убедительная просьба с жалобами обращаться напрямую к пользователю. Файлы для обмена на трекере предоставлены пользователями сайта, и администрация не несёт ответственности за их содержание. Просьба не заливать файлы, защищенные авторскими правами, а также файлы нелегального содержания!

    [Профиль] [ЛС]
    Показать сообщения:    
    Ответить на тему

    Текущее время: Сегодня, в 00:33

    Часовой пояс: GMT + 2



    Вы не можете начинать темы
    Вы не можете отвечать на сообщения
    Вы не можете редактировать свои сообщения
    Вы не можете удалять свои сообщения
    Вы не можете голосовать в опросах
    Вы не можете прикреплять файлы к сообщениям
    Вы не можете скачивать файлы