BitTorrentTracker PerecTracker.org
BitTorrentTracker PerecTracker.org
    
Регистрация  ·  Вход
 
 · 
Забыли пароль?

  • Сердце льва / Leijonasydan / Heart of a lion (Доме Карукоски / Dome Karukoski) [2013, Финляндия, Швеция, Драма, HDRip] VO (ХихиДок)

    Ответить на тему
     
    Автор Сообщение

    Columb

    Создавать темы 29-Май-2014 16:42

           

    [Цитировать]

    Сердце льва / Leijonasydan / Heart of a lion
    Страна: Финляндия, Швеция
    Жанр: Драма
    Год выпуска: 2013
    Продолжительность: 01:39:19
    Перевод: Одноголосый закадровый ХихиДок
    Cубтитры: нет
    Оригинальная аудиодорожка: нет
    Режиссер: Доме Карукоски / Dome Karukoski
    В ролях: Петер Францен, Лаура Бирн, Яспер Пяякконен, Памела Тола, Юсси Ватанен, Деограсиас Масоми, Микко Неувонен, Лаура Хеймо, Тимо Лавикайнен, Юха Пурсиайнен
    Описание: Неонацист Теппо пытается наладить свою беспокойную жизнь, задумывается о работе и намерен принять все, так как есть, лишь только бы уйти от прошлой жизни. Ему встречается молодая привлекательная девушка с ярко светлыми волосами, её зовут Сари. Он начинает с ней отношения, которые перерастают в жаркую, страстную любовь. Но внезапно она признаётся ему... У неё есть сын афроамериканец. Судя по суждениям, для него это был крах, только вроде бы налаживаемой жизни. Он долго не может найти себе места, но в итоге принимает достойное мужчины решение. Быть для мальчишки отцом. Но вот мальчик сообразил, он знал взгляды зрелого мужчины и соответственно не хотел жить вместе с неонацистом.
    Доп. информация:

    Качество видео: HDRip
    Формат видео: AVI
    Видео: 688x288 (2.39:1), 23.976 fps, XviD build 50 ~911 kbps avg, 0.19 bit/pixel
    Аудио: 44.100 kHz, MPEG Layer 3, 2 ch, ~128.00 kbps avg

    MediaInfo

    General
    Complete name : D:\Сердце льва.2013.HDRip.avi
    Format : AVI
    Format/Info : Audio Video Interleave
    File size : 745 MiB
    Duration : 1h 39mn
    Overall bit rate : 1 049 Kbps
    Writing application : VirtualDubMod 1.5.10.3 | www.virtualdub-fr.org || (build 2550/release)
    Writing library : VirtualDubMod build 2550/release
    Video
    ID : 0
    Format : MPEG-4 Visual
    Format profile : Advanced Simple@L5
    Format settings, BVOP : Yes
    Format settings, QPel : No
    Format settings, GMC : No warppoints
    Format settings, Matrix : Custom
    Codec ID : XVID
    Codec ID/Hint : XviD
    Duration : 1h 39mn
    Bit rate : 911 Kbps
    Width : 688 pixels
    Height : 288 pixels
    Display aspect ratio : 2.40:1
    Frame rate : 23.976 fps
    Color space : YUV
    Chroma subsampling : 4:2:0
    Bit depth : 8 bits
    Scan type : Progressive
    Compression mode : Lossy
    Bits/(Pixel*Frame) : 0.192
    Stream size : 647 MiB (87%)
    Writing library : XviD 1.2.1 (UTC 2008-12-04)
    Audio
    ID : 1
    Format : MPEG Audio
    Format version : Version 1
    Format profile : Layer 3
    Codec ID : 55
    Codec ID/Hint : MP3
    Duration : 1h 39mn
    Bit rate mode : Constant
    Bit rate : 128 Kbps
    Channel count : 2 channels
    Sampling rate : 44.1 KHz
    Compression mode : Lossy
    Stream size : 90.9 MiB (12%)
    Alignment : Split accross interleaves
    Interleave, duration : 42 ms (1.00 video frame)
    Interleave, preload duration : 500 ms
    Writing library : LAME3.99r
    Encoding settings : -m s -V 4 -q 2 -lowpass 17 -b 128

    Скриншот c названием фильма

    Скриншоты

    Скачать .torrent

    Скачать торрент-файл бесплатно и на максимальной скорости!

    Как скачивать? · Что такое торрент? · Рейтинг и ограничения

    !ВНИМАНИЕ!
    Сайт не распространяет и не хранит электронные версии произведений, а занимается лишь лишь предоставлением доступа к создаваемому пользователями каталогу ссылок на торрент-файлы, которые содержат только списки хеш-сумм, убедительная просьба с жалобами обращаться напрямую к пользователю. Файлы для обмена на трекере предоставлены пользователями сайта, и администрация не несёт ответственности за их содержание. Просьба не заливать файлы, защищенные авторскими правами, а также файлы нелегального содержания!

    [Профиль] [ЛС]
    Показать сообщения:    
    Ответить на тему

    Текущее время: Сегодня, в 11:05

    Часовой пояс: GMT + 2



    Вы не можете начинать темы
    Вы не можете отвечать на сообщения
    Вы не можете редактировать свои сообщения
    Вы не можете удалять свои сообщения
    Вы не можете голосовать в опросах
    Вы не можете прикреплять файлы к сообщениям
    Вы не можете скачивать файлы