Register  ·  Log in
Forgot password?

  • Уик-энд в Париже / Le Week-End (Роджер Мишелл / Roger Michell) [2013, Великобритания, Франция, комедия, мелодрама, HDRip] MVO

    Reply to topic
    Author Message


    Post 29-May-2014 17:40



    Уик-энд в Париже / Le Week-End
    Страна: Великобритания, Франция
    Жанр: комедия, мелодрама
    Год выпуска: 2013
    Продолжительность: 01:33:05
    Перевод: Профессиональный (многоголосый закадровый)
    Cубтитры: нет
    Режиссер: Роджер Мишелл / Roger Michell
    В ролях: Джим Бродбент, Линдси Дункан, Джефф Голдблюм, Igor Gotesman, Olivier Audibert, Софи-Шарлотт Юссон, Etienne Dalibert, Морисетт Лоренс, Gabriel Mailhebiau, Violaine Baccon.
    Описание: Супружеская пара спустя многие годы после медового месяца возвращается в Париж в попытке освежить брак. В столице Франции они встретят старого приятеля, которому удастся вдохнуть в охладевшие отношения новую жизнь.
    Качество видео: HDRip
    Формат видео: AVI
    Видео: Xvid 720x304 24fps 981kbps
    Аудио: MP3 48000Hz stereo 128kbps


    Format : AVI
    Format/Info : Audio Video Interleave
    File size : 745 MiB
    Duration : 1h 33mn
    Overall bit rate : 1 119 Kbps
    Writing application : VirtualDubModRus (build 2542/release)
    Writing library : VirtualDubMod build 2542/release
    ID : 0
    Format : MPEG-4 Visual
    Format profile : Advanced Simple@L5
    Format settings, BVOP : Yes
    Format settings, QPel : No
    Format settings, GMC : No warppoints
    Format settings, Matrix : Custom
    Codec ID : XVID
    Codec ID/Hint : XviD
    Duration : 1h 33mn
    Bit rate : 982 Kbps
    Width : 720 pixels
    Height : 304 pixels
    Display aspect ratio : 2.35:1
    Frame rate : 24.000 fps
    Color space : YUV
    Chroma subsampling : 4:2:0
    Bit depth : 8 bits
    Scan type : Progressive
    Compression mode : Lossy
    Bits/(Pixel*Frame) : 0.187
    Stream size : 653 MiB (88%)
    Writing library : XviD 73
    ID : 1
    Format : MPEG Audio
    Format version : Version 1
    Format profile : Layer 3
    Mode : Joint stereo
    Mode extension : MS Stereo
    Codec ID : 55
    Codec ID/Hint : MP3
    Duration : 1h 33mn
    Bit rate mode : Constant
    Bit rate : 128 Kbps
    Channel(s) : 2 channels
    Sampling rate : 48.0 KHz
    Compression mode : Lossy
    Stream size : 85.2 MiB (11%)
    Alignment : Aligned on interleaves
    Interleave, duration : 42 ms (1.00 video frame)
    Interleave, preload duration : 504 ms

    Скриншот c названием фильма


    Download .torrent

    Download free and at maximum speed!

    How to Download? · What is a torrent? · Ratings and Limitations

    The site does not extend and does not store electronic(digital) versions of products, and only gives access to a reference catalogue created by users on torrent-files which contain only lists of the hash-sums, the earnest entreaty, with complaints(abuse) to access directly to the user. Files for an exchange on tracker are given by users of a site, and the administration does not bear the responsibility for their maintenance. The request to not fill in the files protected by copyrights, and also files of the illegal maintenance!

    [Profile] [PM]
    Display posts from previous:    
    Reply to topic

    The time now is: Today 01:36

    All times are GMT + 3 Hours

    You cannot post new topics in this forum
    You cannot reply to topics in this forum
    You cannot edit your posts in this forum
    You cannot delete your posts in this forum
    You cannot vote in polls in this forum
    You cannot attach files in this forum
    You cannot download files in this forum