BitTorrentTracker PerecTracker.org
BitTorrentTracker PerecTracker.org
    
Регистрация  ·  Вход
 
 · 
Забыли пароль?

  • Уик-энд в Париже / Le Week-End (Роджер Мишелл / Roger Michell) [2013, Великобритания, Франция, комедия, мелодрама, HDRip] MVO

    Ответить на тему
     
    Автор Сообщение

    Columb

    Создавать темы 29-Май-2014 16:40

           

    [Цитировать]

    Уик-энд в Париже / Le Week-End
    Страна: Великобритания, Франция
    Жанр: комедия, мелодрама
    Год выпуска: 2013
    Продолжительность: 01:33:05
    Перевод: Профессиональный (многоголосый закадровый)
    Cубтитры: нет
    Режиссер: Роджер Мишелл / Roger Michell
    В ролях: Джим Бродбент, Линдси Дункан, Джефф Голдблюм, Igor Gotesman, Olivier Audibert, Софи-Шарлотт Юссон, Etienne Dalibert, Морисетт Лоренс, Gabriel Mailhebiau, Violaine Baccon.
    Описание: Супружеская пара спустя многие годы после медового месяца возвращается в Париж в попытке освежить брак. В столице Франции они встретят старого приятеля, которому удастся вдохнуть в охладевшие отношения новую жизнь.
    Сэмпл: http://sendfile.su/984733
    Качество видео: HDRip
    Формат видео: AVI
    Видео: Xvid 720x304 24fps 981kbps
    Аудио: MP3 48000Hz stereo 128kbps

    MediaInfo

    Format : AVI
    Format/Info : Audio Video Interleave
    File size : 745 MiB
    Duration : 1h 33mn
    Overall bit rate : 1 119 Kbps
    Writing application : VirtualDubModRus 1.5.10.2 (build 2542/release)
    Writing library : VirtualDubMod build 2542/release
    Video
    ID : 0
    Format : MPEG-4 Visual
    Format profile : Advanced Simple@L5
    Format settings, BVOP : Yes
    Format settings, QPel : No
    Format settings, GMC : No warppoints
    Format settings, Matrix : Custom
    Codec ID : XVID
    Codec ID/Hint : XviD
    Duration : 1h 33mn
    Bit rate : 982 Kbps
    Width : 720 pixels
    Height : 304 pixels
    Display aspect ratio : 2.35:1
    Frame rate : 24.000 fps
    Color space : YUV
    Chroma subsampling : 4:2:0
    Bit depth : 8 bits
    Scan type : Progressive
    Compression mode : Lossy
    Bits/(Pixel*Frame) : 0.187
    Stream size : 653 MiB (88%)
    Writing library : XviD 73
    Audio
    ID : 1
    Format : MPEG Audio
    Format version : Version 1
    Format profile : Layer 3
    Mode : Joint stereo
    Mode extension : MS Stereo
    Codec ID : 55
    Codec ID/Hint : MP3
    Duration : 1h 33mn
    Bit rate mode : Constant
    Bit rate : 128 Kbps
    Channel(s) : 2 channels
    Sampling rate : 48.0 KHz
    Compression mode : Lossy
    Stream size : 85.2 MiB (11%)
    Alignment : Aligned on interleaves
    Interleave, duration : 42 ms (1.00 video frame)
    Interleave, preload duration : 504 ms

    Скриншот c названием фильма

    Скриншоты

    Скачать .torrent

    Скачать торрент-файл бесплатно и на максимальной скорости!

    Как скачивать? · Что такое торрент? · Рейтинг и ограничения

    !ВНИМАНИЕ!
    Сайт не распространяет и не хранит электронные версии произведений, а занимается лишь лишь предоставлением доступа к создаваемому пользователями каталогу ссылок на торрент-файлы, которые содержат только списки хеш-сумм, убедительная просьба с жалобами обращаться напрямую к пользователю. Файлы для обмена на трекере предоставлены пользователями сайта, и администрация не несёт ответственности за их содержание. Просьба не заливать файлы, защищенные авторскими правами, а также файлы нелегального содержания!

    [Профиль] [ЛС]
    Показать сообщения:    
    Ответить на тему

    Текущее время: Сегодня, в 12:15

    Часовой пояс: GMT + 2



    Вы не можете начинать темы
    Вы не можете отвечать на сообщения
    Вы не можете редактировать свои сообщения
    Вы не можете удалять свои сообщения
    Вы не можете голосовать в опросах
    Вы не можете прикреплять файлы к сообщениям
    Вы не можете скачивать файлы