BitTorrentTracker PerecTracker.org
BitTorrentTracker PerecTracker.org
    
Регистрация  ·  Вход
 
 · 
Забыли пароль?

  • Перед рассветом / Before Dawn (Доминик Брант / Dominic Brunt) [2012, Великобритания, ужасы, DVDRip] DVO (DeadSno & den904)

    Ответить на тему
     
    Автор Сообщение

    Columb

    Создавать темы 29-Май-2014 16:39

           

    [Цитировать]

    Перед рассветом / Before Dawn
    Страна: Великобритания
    Жанр: ужасы
    Год выпуска: 2012
    Продолжительность: 01:22:08
    Перевод: Любительский (двухголосый закадровый) DeadSno & den904
    перевод на русский язык Северный - работа со звуком Гуннлауг
    Cубтитры: нет
    Оригинальная аудиодорожка: нет
    Режиссер: Доминик Брант / Dominic Brunt
    В ролях: Доминик Брант, Джоэнн Митчелл, Эйлин О’Брайэн, Никки Эванс, Алекс Бальдаччи, Алан Френч, Холли Айллис, Дэвид Нолан, Нил Майерс, Брин Хэммонд
    Описание: Семейная пара, брак которой трещит по швам, отправляется в загородный дом, чтобы провести выходные вместе и попытаться наладить отношения, но их мечтам не суждено было сбыться.. ведь, как оказалось, разваливается не только их семья, но и весь мир. И в этом новом мире, наполненном кровожадными тварями, семье придется приложить максимум усилий чтобы остаться в живых..
    Сэмпл: http://multi-up.com/976796
    Качество видео: DVDRip
    Формат видео: MKV
    Видео: MPEG4 Video (H264) 720x304 25fps 1 971 Kbps
    Аудио: Dolby AC3 48000Hz 6ch 448kbps

    MediaInfo

    General
    Unique ID : 185192065752896891673294139613758865943 (0x8B52B1CA12C1D4438365B18BBD3BC217)
    Complete name : C:\Users\Вика\Desktop\Before.Dawn.2012.DVDRip.mkv
    Format : Matroska
    Format version : Version 4 / Version 2
    File size : 1.39 GiB
    Duration : 1h 22mn
    Overall bit rate : 2 416 Kbps
    Encoded date : UTC 2014-05-29 04:19:58
    Writing application : mkvmerge v6.9.1 ('Blue Panther') 64bit built on Apr 18 2014 18:23:38
    Writing library : libebml v1.3.0 + libmatroska v1.4.1
    Video
    ID : 1
    Format : AVC
    Format/Info : Advanced Video Codec
    Format profile : High@L4.1
    Format settings, CABAC : Yes
    Format settings, ReFrames : 7 frames
    Codec ID : V_MPEG4/ISO/AVC
    Duration : 1h 22mn
    Bit rate : 1 971 Kbps
    Width : 720 pixels
    Height : 304 pixels
    Display aspect ratio : 2.35:1
    Frame rate mode : Constant
    Frame rate : 25.000 fps
    Color space : YUV
    Chroma subsampling : 4:2:0
    Bit depth : 8 bits
    Scan type : Progressive
    Bits/(Pixel*Frame) : 0.360
    Stream size : 1.10 GiB (79%)
    Writing library : x264 core 129 r2245 bc13772
    Encoding settings : cabac=1 / ref=8 / deblock=1:-1:-1 / analyse=0x3:0x133 / me=umh / subme=7 / psy=1 / psy_rd=1.00:0.15 / mixed_ref=1 / me_range=32 / chroma_me=1 / trellis=1 / 8x8dct=1 / cqm=0 / deadzone=21,11 / fast_pskip=0 / chroma_qp_offset=-5 / threads=6 / lookahead_threads=1 / sliced_threads=0 / nr=1 / decimate=1 / interlaced=0 / bluray_compat=0 / constrained_intra=0 / bframes=3 / b_pyramid=1 / b_adapt=1 / b_bias=0 / direct=1 / weightb=1 / open_gop=0 / weightp=1 / keyint=250 / keyint_min=25 / scenecut=40 / intra_refresh=0 / rc_lookahead=30 / rc=2pass / mbtree=1 / bitrate=1971 / ratetol=1.0 / qcomp=0.60 / qpmin=0 / qpmax=69 / qpstep=4 / cplxblur=20.0 / qblur=0.5 / vbv_maxrate=30000 / vbv_bufsize=30000 / nal_hrd=none / ip_ratio=1.40 / aq=1:1.00
    Language : English
    Default : Yes
    Forced : No
    Color primaries : Generic film
    Audio
    ID : 2
    Format : AC-3
    Format/Info : Audio Coding 3
    Mode extension : CM (complete main)
    Format settings, Endianness : Big
    Codec ID : A_AC3
    Duration : 1h 22mn
    Bit rate mode : Constant
    Bit rate : 448 Kbps
    Channel count : 6 channels
    Channel positions : Front: L C R, Side: L R, LFE
    Sampling rate : 48.0 KHz
    Bit depth : 16 bits
    Compression mode : Lossy
    Stream size : 264 MiB (19%)
    Title : Влад и Снежинка
    Language : Russian
    Default : Yes
    Forced : Yes

    Скриншот c названием фильма

    Скриншоты

    Скачать .torrent

    Скачать торрент-файл бесплатно и на максимальной скорости!

    Как скачивать? · Что такое торрент? · Рейтинг и ограничения

    !ВНИМАНИЕ!
    Сайт не распространяет и не хранит электронные версии произведений, а занимается лишь лишь предоставлением доступа к создаваемому пользователями каталогу ссылок на торрент-файлы, которые содержат только списки хеш-сумм, убедительная просьба с жалобами обращаться напрямую к пользователю. Файлы для обмена на трекере предоставлены пользователями сайта, и администрация не несёт ответственности за их содержание. Просьба не заливать файлы, защищенные авторскими правами, а также файлы нелегального содержания!

    [Профиль] [ЛС]
    Показать сообщения:    
    Ответить на тему

    Текущее время: Сегодня, в 10:49

    Часовой пояс: GMT + 2



    Вы не можете начинать темы
    Вы не можете отвечать на сообщения
    Вы не можете редактировать свои сообщения
    Вы не можете удалять свои сообщения
    Вы не можете голосовать в опросах
    Вы не можете прикреплять файлы к сообщениям
    Вы не можете скачивать файлы