BitTorrentTracker PerecTracker.org
BitTorrentTracker PerecTracker.org
    
Регистрация  ·  Вход
 
 · 
Забыли пароль?

  • Мальчики едят девочек / Boy Eats Girl (Стивен Брэдли / Stephen Bradley) [2005 г., Ирландия, Великобритания, ужасы, комедия, BDRip] MVO

    Ответить на тему
     
    Автор Сообщение

    Columb

    Создавать темы 29-Май-2014 16:24

           

    [Цитировать]

    Мальчики едят девочекBoy Eats Girl-«School's Out ... And So Are the Zombies»-Год выпуска: 2005
    Страна: Ирландия, Великобритания-Жанр: ужасы, комедия
    Продолжительность: 01:20:11
    Перевод: Профессиональный (многоголосый, закадровый)
    Субтитры: нет-Режиссер: Стивен Брэдли / Stephen Bradley
    Сценарий: Дерек Лэнди / Derek Landy
    Продюсер: Эд Гуене / Ed Guiney, Эндрю Лоу / Andrew Lowe, Ноёлетт Бакли / Noëlette Buckley, Алан Мехер / Alan Maher, Марк Вудс / Mark Woods
    Оператор: Балас Болиго / Balazs Bolygo
    Композитор: Хью Драмм / Hugh Drumm, Стивен Ренникс / Stephen Rennicks-В ролях: Саманта Мамба (Jessica), Дэвид Леон (Nathan), Тадж Мерфи (Diggs), Лоуренс Кинлан (Henry), Сара Джеймс (Cheryl), Марк Хубермэн (Samson), Сара Бурк (Charlotte), Пол Рейд (Shane), Джейн Валентайн (Glenda), Конор Райан (Kenneth), Дирдри О’Кейн (Grace), Дорин Кеог (Mrs. Brumble)-Описание: Юноша признается девушке в любви и в ту же ночь умирает. Мать с помощью магии Вуду оживляет его, но юноша становится зомби и начинает есть своих сверстников, которые также становятся зомби.-kinopoisk.ru: 4.333 (679)
    imdb.com: 5.10 (3009)
    MPAA: R - Лицам до 17 лет обязательно присутствие взрослого-Качество: BDRip / Boy.Eats.Girl.2005.1080p.BluRay.AVC.Remux.HDCLUB
    Контейнер: AVI
    Видео: 672x368 (1.83:1), 23.976 fps, XviD build 65 ~1160 kbps avg, 0.20 bit/pixel
    Аудио: 48 kHz, MPEG Layer 3, 2 ch, ~128.00 kbps avg--

    MediaInfo

    General
    Complete name                            : E:\Полуфабрикаты\Рипы\Boy.Eats.Girl.2005.BDRip.744.MVO.All.Films.avi
    Format                                   : AVI
    Format/Info                              : Audio Video Interleave
    File size                                : 745 MiB
    Duration                                 : 1h 20mn
    Overall bit rate                         : 1 298 Kbps
    Movie name                               : Boy.Eats.Girl.2005.BDRip.744.MVO.All.Films
    Director                                 : DIABLO93
    Genre                                    : Comedy/Sci-Fi
    Writing application                      : VirtualDubMod 1.5.10.3 | www.virtualdub-fr.org || (build 2550/release)
    Original source form/Name                : Movie
    Copyright                                : Rutracker.org (R.G. All Films)
    Video
    ID                                       : 0
    Format                                   : MPEG-4 Visual
    Format profile                           : Advanced Simple@L5
    Format settings, BVOP                    : 2
    Format settings, QPel                    : No
    Format settings, GMC                     : No warppoints
    Format settings, Matrix                  : Custom
    Codec ID                                 : XVID
    Codec ID/Hint                            : XviD
    Duration                                 : 1h 20mn
    Bit rate                                 : 1 161 Kbps
    Width                                    : 672 pixels
    Height                                   : 368 pixels
    Display aspect ratio                     : 1.85:1
    Frame rate                               : 23.976 fps
    Color space                              : YUV
    Chroma subsampling                       : 4:2:0
    Bit depth                                : 8 bits
    Scan type                                : Progressive
    Compression mode                         : Lossy
    Bits/(Pixel*Frame)                       : 0.196
    Stream size                              : 666 MiB (89%)
    Writing library                          : XviD 65
    Audio
    ID                                       : 1
    Format                                   : MPEG Audio
    Format version                           : Version 1
    Format profile                           : Layer 3
    Codec ID                                 : 55
    Codec ID/Hint                            : MP3
    Duration                                 : 1h 20mn
    Bit rate mode                            : Constant
    Bit rate                                 : 128 Kbps
    Channel(s)                               : 2 channels
    Sampling rate                            : 48.0 KHz
    Compression mode                         : Lossy
    Stream size                              : 73.4 MiB (10%)
    Alignment                                : Aligned on interleaves
    Interleave, duration                     : 42 ms (1.00 video frame)
    Interleave, preload duration             : 504 ms
    Writing library                          : LAME3.99r
    Encoding settings                        : -m s -V 4 -q 2 -lowpass 17 -b 128
    -

    Сэмпл

    Скачать

    Скриншоты

    Скачать .torrent

    Скачать торрент-файл бесплатно и на максимальной скорости!

    Как скачивать? · Что такое торрент? · Рейтинг и ограничения

    !ВНИМАНИЕ!
    Сайт не распространяет и не хранит электронные версии произведений, а занимается лишь лишь предоставлением доступа к создаваемому пользователями каталогу ссылок на торрент-файлы, которые содержат только списки хеш-сумм, убедительная просьба с жалобами обращаться напрямую к пользователю. Файлы для обмена на трекере предоставлены пользователями сайта, и администрация не несёт ответственности за их содержание. Просьба не заливать файлы, защищенные авторскими правами, а также файлы нелегального содержания!

    [Профиль] [ЛС]
    Показать сообщения:    
    Ответить на тему

    Текущее время: Сегодня, в 19:18

    Часовой пояс: GMT + 2



    Вы не можете начинать темы
    Вы не можете отвечать на сообщения
    Вы не можете редактировать свои сообщения
    Вы не можете удалять свои сообщения
    Вы не можете голосовать в опросах
    Вы не можете прикреплять файлы к сообщениям
    Вы не можете скачивать файлы