BitTorrentTracker PerecTracker.org
BitTorrentTracker PerecTracker.org
    
Регистрация  ·  Вход
 
 · 
Забыли пароль?

  • Короткий срок 12 / Short Term 12 (Дестин Креттон / Destin Cretton) [2013, США, драма, DVB] DVO (P&I Films)

    Ответить на тему
     
    Автор Сообщение

    Columb

    Создавать темы 28-Май-2014 10:44

           

    [Цитировать]

    Короткий срок 12
    Short Term 12-Страна: США
    Жанр: драма
    Год выпуска: 2013
    Продолжительность: 01:32:54Перевод: Профессиональный (двухголосый закадровый) P&I Films
    Cубтитры: нет
    Режиссер: Дестин Креттон / Destin Cretton
    В ролях: Бри Ларсон / Brie Larson (Grace), Джон Галлахер-мл. / John Gallagher Jr. (Mason), Стефани Беатрис / Stephanie Beatriz (Jessica), Рами Малек / Rami Malek (Nate), Алекс Коллоуэй / Alex Calloway (Sammy)
    Описание: Один из главных американских независимых фильмов прошлого года. История молодой девицы Грейс, сотрудницы центра по работе с подростками в группе риска — страдающими депрессией и прочими психологическими расстройствами. Помимо ухода за подопечными, героиня пытается разобраться в непростых отношениях с бойфрендом-коллегой, а также детской травмой, в итоге подтолкнувшей ее к подобной форме занятости. Тонкая и негромкая работа молодого режиссера Дестина Креттона с подающей большие надежды актрисой Бри Ларсон в главной и на данный момент лучшей своей роли.
    Доп. информация: "Премьера" DVB-S. Канал транслирует фильмы с двумя звуковыми дорожками в AC3 и MP2 – перевод идентичен.
    Награды: 4 награды Locarno International Film Festival 2013 (лучшая актриса - Brie Larson, приз молодежного жюри, приз экуменического жюри, Специальный приз режиссеру) + номинация на "Золотой леопард"; включен в TOP10 лучших независимых фильмов National Board of Review (USA) 2013; награда Independent Spirit Awards 2014 за лучший монтаж + 2 номинации (лучшая актриса - Brie Larson, лучший актер второго плана - Lakeith Lee Stanfield); всего более 20 наград МКФ.

    Сэмпл: http://multi-up.com/976496
    Качество видео: DVB
    Формат видео: MKV
    Видео: MPEG Video 2, 720x576@1024x576 (16:9), 25 fps, ~2731 kbps avg, 0.263 bit/pixel
    Аудио 1: 48 kHz, AC-3, 2 ch, ~192.00 kbps avg
    Аудио 2: 48 kHz, MPEG Audio 2, 2 ch, ~192.00 kbps avg

    MediaInfo

    ОбщееУникальный идентификатор : 232170621645139702669480284706867774525 (0xAEAA6F6C1B7BE298A22263568DFC043D)Полное имя : H:\My Torrents\[apreder]Short_Term_12(2013)DVB.mkvФормат : MatroskaВерсия формата : Version 2Размер файла : 2,06 ГбайтПродолжительность : 1 ч. 32 м.Режим общего битрейта : ПеременныйОбщий поток : 3178 Кбит/секДата кодирования : UTC 2014-05-27 15:30:37Программа кодирования : mkvmerge v6.9.1 ('Blue Panther') 32bit built on Apr 18 2014 18:15:44Библиотека кодирования : libebml v1.3.0 + libmatroska v1.4.1
    ВидеоИдентификатор : 1Формат : MPEG VideoВерсия формата : Version 2Профиль формата : Main@MainПараметр BVOP формата : НетПараметр матрицы формата : ВыборочнаяИдентификатор кодека : V_MPEG2Идентификатор кодека/Информация : MPEG 1 or 2 VideoПродолжительность : 1 ч. 32 м.Вид битрейта : ПеременныйБитрейт : 2731 Кбит/секМаксимальный битрейт : 7042 Кбит/секШирина : 720 пикселейВысота : 576 пикселейСоотношение сторон : 16:9Режим частоты кадров : ПостоянныйЧастота кадров : 25,000 кадров/секСтандарт вещания : PALЦветовое пространство : YUVСубдискретизация насыщенности : 4:2:0Битовая глубина : 8 битТип развёртки : ЧересстрочнаяПорядок развёртки : Верхнее поле первоеМетод сжатия : С потерямиБит/(Пиксели*Кадры) : 0.263Временной код первого кадра : 00:00:00:00Оригинал временного кода : Group of pictures headerРазмер потока : 1,77 Гбайт (86%)Default : ДаForced : Нет
    Аудио #1Идентификатор : 2Формат : AC-3Формат/Информация : Audio Coding 3Расширение режима : CM (complete main)Параметр Endianness формата : BigИдентификатор кодека : A_AC3Продолжительность : 1 ч. 32 м.Вид битрейта : ПостоянныйБитрейт : 192 Кбит/секКаналы : 2 каналаРасположение каналов : Front: L RЧастота : 48,0 КГцБитовая глубина : 16 битМетод сжатия : С потерямиРазмер потока : 128 Мбайт (6%)Язык : RussianDefault : ДаForced : Нет
    Аудио #2Идентификатор : 3Формат : MPEG AudioВерсия формата : Version 1Профиль формата : Layer 2Идентификатор кодека : A_MPEG/L2Идентификатор кодека/Подсказка : MP2Продолжительность : 1 ч. 32 м.Вид битрейта : ПостоянныйБитрейт : 192 Кбит/секКаналы : 2 каналаЧастота : 48,0 КГцМетод сжатия : С потерямиРазмер потока : 128 Мбайт (6%)Язык : RussianDefault : НетForced : Нет

    Скриншот c названием фильма

    Скриншоты


    Резервные скриншоты


    Скачать .torrent

    Скачать торрент-файл бесплатно и на максимальной скорости!

    Как скачивать? · Что такое торрент? · Рейтинг и ограничения

    !ВНИМАНИЕ!
    Сайт не распространяет и не хранит электронные версии произведений, а занимается лишь лишь предоставлением доступа к создаваемому пользователями каталогу ссылок на торрент-файлы, которые содержат только списки хеш-сумм, убедительная просьба с жалобами обращаться напрямую к пользователю. Файлы для обмена на трекере предоставлены пользователями сайта, и администрация не несёт ответственности за их содержание. Просьба не заливать файлы, защищенные авторскими правами, а также файлы нелегального содержания!

    [Профиль] [ЛС]
    Показать сообщения:    
    Ответить на тему

    Текущее время: Сегодня, в 20:51

    Часовой пояс: GMT + 2



    Вы не можете начинать темы
    Вы не можете отвечать на сообщения
    Вы не можете редактировать свои сообщения
    Вы не можете удалять свои сообщения
    Вы не можете голосовать в опросах
    Вы не можете прикреплять файлы к сообщениям
    Вы не можете скачивать файлы