BitTorrentTracker PerecTracker.org
BitTorrentTracker PerecTracker.org
    
Регистрация  ·  Вход
 
 · 
Забыли пароль?

  • Бойцовая рыбка / Rumble Fish (Френсис Форд Коппола / Francis Ford Coppola) [1983, США, драма, HDRip] MVO (ОРТ)

    Ответить на тему
     
    Автор Сообщение

    Columb

    Создавать темы 28-Май-2014 10:41

           

    [Цитировать]

    Бойцовая рыбка / Rumble Fish
    Страна: США
    Жанр: Драма
    Год выпуска: 1983
    Продолжительность: 01:36:07
    Перевод: Профессиональный (многоголосый закадровый) ОРТ
    Cубтитры: нет
    Оригинальная аудиодорожка: нет
    Режиссер: Френсис Форд Коппола / Francis Ford Coppola
    В ролях: Мэтт Диллон, Микки Рурк, Дайан Лэйн, Дэннис Хоппер, Дайана Скаруид, Винсент Спано, Николас Кейдж, Крис Пенн, Лоуренс Фишборн, Уильям Смит, Майкл Хиггинс, Гленн Уитроу, Том Уэйтс, Херб Райс, Нона Мэннинг, София Коппола, Джан-Карло Коппола, Эмметт Браун, Трейси Уолтер, Лэнс Гуечия, Боб Марас, Дж.Т. Тернер, Керстен Хейден, Карен Паркер, Кристи Сомерс
    Описание: Экранизация новеллы американской писательницы С. Э. Хинтон. В центре фильма — юный Расти Джеймс (Диллон), лидер небольшой молодёжной банды промышленного городка. Брат Расти, Мотоциклист (Микки Рурк), бывший «король» города, появляется в сцене криминальной разборки банды Расти и его врагов, вернувшись после долгого отсутствия. Отвлекающийся, бредовый и загадочный, Мотоциклист, кажется, несколько по-иному смотрит на окружающую действительность. Были времена, когда он был лидером банды и под его руководством она не знала поражений. Но теперь в город пришёл героин и банды остались в прошлом. Расти Джеймс хочет быть таким как брат, и тоскует по ушедшему миру. А Мотоциклист, дальтоник и почти глухой, не видит в жизни больше ничего интересного... В течение долгого времени фильм сохраняет за собой статус «культового фильма». Именно этот фильм подарил миру таких актеров, как Микки Рурк, Мэтт Диллон и Николас Кейдж.
    Доп. информация: За русскую дорогу спасибо 21Sepsis. Работа со звуком благодарю JUSTKANT
    Сэмпл: http://multi-up.com/976489
    Качество видео: HDRip
    Формат видео: AVI
    Видео: XviD build 50, 704x384 (1.85:1), 23.976 fps, 1775 kbps avg
    Аудио: Russian AC3 Dolby Digital, 48 kHz, 2/0 (L,R) ch, 192.00 kbps avg

    MediaInfo

    Complete name : F:\ФИЛЬМЫ_нужно раздать\Rumble Fish_1983. ORT MVO.BDRip.avi
    Format : AVI
    Format/Info : Audio Video Interleave
    File size : 1.32 GiB
    Duration : 1h 36mn
    Overall bit rate : 1 973 Kbps
    Movie name : Бойцовая рыбка
    Director : derdevil13
    Writing application : VirtualDubModRus 1.5.10.2 (build 2542/release)
    Writing library : VirtualDubMod build 2542/release
    Video
    ID : 0
    Format : MPEG-4 Visual
    Format profile : Advanced Simple@L5
    Format settings, BVOP : 2
    Format settings, QPel : No
    Format settings, GMC : No warppoints
    Format settings, Matrix : Custom
    Codec ID : XVID
    Codec ID/Hint : XviD
    Duration : 1h 36mn
    Bit rate : 1 775 Kbps
    Width : 704 pixels
    Height : 384 pixels
    Display aspect ratio : 1.85:1
    Frame rate : 23.976 fps
    Color space : YUV
    Chroma subsampling : 4:2:0
    Bit depth : 8 bits
    Scan type : Progressive
    Compression mode : Lossy
    Bits/(Pixel*Frame) : 0.274
    Stream size : 1.19 GiB (90%)
    Writing library : XviD 73
    Audio
    ID : 1
    Format : AC-3
    Format/Info : Audio Coding 3
    Mode extension : CM (complete main)
    Format settings, Endianness : Big
    Codec ID : 2000
    Duration : 1h 34mn
    Bit rate mode : Constant
    Bit rate : 192 Kbps
    Channel count : 2 channels
    Channel positions : Front: L R
    Sampling rate : 48.0 KHz
    Bit depth : 16 bits
    Compression mode : Lossy
    Stream size : 129 MiB (10%)
    Alignment : Split accross interleaves
    Interleave, duration : 43 ms (1.02 video frame)
    Interleave, preload duration : 500 ms

    Скриншоты

    Скачать .torrent

    Скачать торрент-файл бесплатно и на максимальной скорости!

    Как скачивать? · Что такое торрент? · Рейтинг и ограничения

    !ВНИМАНИЕ!
    Сайт не распространяет и не хранит электронные версии произведений, а занимается лишь лишь предоставлением доступа к создаваемому пользователями каталогу ссылок на торрент-файлы, которые содержат только списки хеш-сумм, убедительная просьба с жалобами обращаться напрямую к пользователю. Файлы для обмена на трекере предоставлены пользователями сайта, и администрация не несёт ответственности за их содержание. Просьба не заливать файлы, защищенные авторскими правами, а также файлы нелегального содержания!

    [Профиль] [ЛС]
    Показать сообщения:    
    Ответить на тему

    Текущее время: Сегодня, в 15:52

    Часовой пояс: GMT + 2



    Вы не можете начинать темы
    Вы не можете отвечать на сообщения
    Вы не можете редактировать свои сообщения
    Вы не можете удалять свои сообщения
    Вы не можете голосовать в опросах
    Вы не можете прикреплять файлы к сообщениям
    Вы не можете скачивать файлы