BitTorrentTracker PerecTracker.org
BitTorrentTracker PerecTracker.org
    
Регистрация  ·  Вход
 
 · 
Забыли пароль?

  • В водовороте неприятностей / No entry (Анис Базми / Anees Bazmee) [2005, Индия, Комедия, HDRip] DVO

    Ответить на тему
     
    Автор Сообщение

    Columb

    Создавать темы 28-Май-2014 10:29

           

    [Цитировать]

    В водовороте неприятностей / No entry
    -Страна: Индия
    Жанр: Комедия
    Год выпуска: 2005
    Продолжительность: 02:41:00-Перевод: Профессиональный (двухголосый закадровый)-Режиссер: Анис Базми / Anees Bazmee-В ролях: Анил Капур, Салман Кхан, Фардин Кхан, Бипаша Басу, Лара Датта, Иша Деол, Селина Джейтли, Боман Ирани-Описание: Кажется, что герои этого фильма, верный Кишан с ревнивой, но обожающей его Каджол, плейбой Прем с домашней и доверчивой Пуджей и фотограф Сани с невестой Санджаной составляют достаточно гармоничные любящие пары. Но стоит только в их жизни появиться сексапильной танцовщице Бобби, как они оказываются вовлеченными в водоворот неприятностей...-- --Качество видео: HDRip
    Формат видео: AVI-Видео: 672x288 (2.33:1), 24.000 fps, XviD build 50 ~1157 kbps avg, 0.25 bit/pixel
    Аудио: 48 kHz, MPEG Layer 3, 2 ch, ~128.00 kbps-Риппер, сведение аудио: soso4eg-Семпл / Sample---

    Скриншот с названием

    -

    Скриншоты:

    -

    MI

    Общее
    Полное имя : P:\[Релизы]\V.Vodovorote.Nepriyatnostey.2005.НDRip.XviD-soso4eg.avi
    Формат : AVI
    Формат/Информация : Audio Video Interleave
    Размер файла : 1,46 Гбайт
    Продолжительность : 2 ч. 41 м.
    Общий поток : 1295 Кбит/сек
    Название фильма : V.Vodovorote.Nepriyatnostey.2005.НDRip.XviD-soso4eg
    Режиссёр : soso4eg
    Программа кодирования : VirtualDubMod 1.5.10.3 | www.virtualdub-fr.org || (build 2550/release)
    Видео
    Идентификатор : 0
    Формат : MPEG-4 Visual
    Профиль формата : Advanced Simple@L5
    Параметр BVOP формата : 1
    Параметр QPel формата : Нет
    Параметр GMC формата : Без точки перехода
    Параметр матрицы формата : Default (MPEG)
    Идентификатор кодека : XVID
    Идентификатор кодека/Подсказка : XviD
    Продолжительность : 2 ч. 41 м.
    Битрейт : 1158 Кбит/сек
    Ширина : 672 пикселя
    Высота : 288 пикселей
    Соотношение сторон : 2,35:1
    Частота кадров : 24,000 кадра/сек
    Цветовое пространство : YUV
    Субдискретизация насыщенности : 4:2:0
    Битовая глубина : 8 бит
    Тип развёртки : Прогрессивная
    Метод сжатия : С потерями
    Бит/(Пиксели*Кадры) : 0.249
    Размер потока : 1,30 Гбайт (89%)
    Библиотека кодирования : XviD 1.2.1 (UTC 2008-12-04)
    Аудио
    Идентификатор : 1
    Формат : MPEG Audio
    Версия формата : Version 1
    Профиль формата : Layer 3
    Режим : Joint stereo
    Расширение режима : MS Stereo
    Идентификатор кодека : 55
    Идентификатор кодека/Подсказка : MP3
    Продолжительность : 2 ч. 41 м.
    Вид битрейта : Постоянный
    Битрейт : 128 Кбит/сек
    Каналы : 2 канала
    Частота : 48,0 КГц
    Метод сжатия : С потерями
    Размер потока : 147 Мбайт (10%)
    Выравнивание : Соединение по промежуткам
    Продолжительность промежутка : 42 мс. (1,00 видеокадр)
    Время предзагрузки промежутка : 504 мс.
    --
    Скачать .torrent

    Скачать торрент-файл бесплатно и на максимальной скорости!

    Как скачивать? · Что такое торрент? · Рейтинг и ограничения

    !ВНИМАНИЕ!
    Сайт не распространяет и не хранит электронные версии произведений, а занимается лишь лишь предоставлением доступа к создаваемому пользователями каталогу ссылок на торрент-файлы, которые содержат только списки хеш-сумм, убедительная просьба с жалобами обращаться напрямую к пользователю. Файлы для обмена на трекере предоставлены пользователями сайта, и администрация не несёт ответственности за их содержание. Просьба не заливать файлы, защищенные авторскими правами, а также файлы нелегального содержания!

    [Профиль] [ЛС]
    Показать сообщения:    
    Ответить на тему

    Текущее время: Сегодня, в 08:07

    Часовой пояс: GMT + 2



    Вы не можете начинать темы
    Вы не можете отвечать на сообщения
    Вы не можете редактировать свои сообщения
    Вы не можете удалять свои сообщения
    Вы не можете голосовать в опросах
    Вы не можете прикреплять файлы к сообщениям
    Вы не можете скачивать файлы