BitTorrentTracker PerecTracker.org
BitTorrentTracker PerecTracker.org
    
Регистрация  ·  Вход
 
 · 
Забыли пароль?

  • Среди серых камней (Кира Муратова) [1983, драма, DVDRip]

    Ответить на тему
     
    Автор Сообщение

    Columb

    Создавать темы 28-Май-2014 10:25

           

    [Цитировать]

    Среди серых камней
    Жанр: драма
    Год выпуска: 1983
    Продолжительность: 01:23:00
    Режиссёр: Кира Муратова
    В ролях: Игорь Шарапов, Оксана Шлапак, Станислав Говорухин, Роман Левченко, Сергей Попов, Виктор Аристов, Виктор Гоголев, Федор Никитин, Владимир Пожидаев, Нина Русланова
    Описание: Странная атмосфера, причудливая вереница мимолетных, но ярких человеческих образов, калейдоскоп индивидуальных и коллективных ценностей, лицевая сторона бытия и изнанка переживаний, параллели и пересечения детского и взрослого взгляда на мир, полифония жизни и смерти — то, о чем нельзя сказать, но во что можно проникнуть…
    Сэмпл: http://multi-up.com/976439
    Качество видео: DVDRip
    Формат видео: AVI
    Видео: Xvid, 720x560, 2157 kbps, 25.000 fps
    Аудио: AC3, 2 ch, 192 rbps, 48,0 КГц

    MediaInfo

    Общее
    Полное имя : I:\Среди серых камней\Sredi.serix.kamnei.1983.DVDRip.Kinoradiomagia.avi
    Формат : AVI
    Формат/Информация : Audio Video Interleave
    Размер файла : 1,37 Гбайт
    Продолжительность : 1 ч. 23 м.
    Общий поток : 2356 Кбит/сек
    Программа кодирования : VirtualDubMod 1.5.4.1 (build 2178/release)
    Библиотека кодирования : VirtualDubMod build 2178/release
    Видео
    Идентификатор : 0
    Формат : MPEG-4 Visual
    Профиль формата : Advanced Simple@L5
    Параметр BVOP формата : 1
    Параметр QPel формата : Нет
    Параметр GMC формата : Без точки перехода
    Параметр матрицы формата : Выборочная
    Идентификатор кодека : XVID
    Идентификатор кодека/Подсказка : XviD
    Продолжительность : 1 ч. 23 м.
    Битрейт : 2157 Кбит/сек
    Ширина : 720 пикселей
    Высота : 560 пикселей
    Соотношение сторон : 1,286
    Частота кадров : 25,000 кадров/сек
    Цветовое пространство : YUV
    Субдискретизация насыщенности : 4:2:0
    Битовая глубина : 8 бит
    Тип развёртки : Прогрессивная
    Метод сжатия : С потерями
    Бит/(Пиксели*Кадры) : 0.214
    Размер потока : 1,25 Гбайт (92%)
    Библиотека кодирования : XviD 64
    Аудио
    Идентификатор : 1
    Формат : AC-3
    Формат/Информация : Audio Coding 3
    Расширение режима : CM (complete main)
    Параметр Endianness формата : Big
    Идентификатор кодека : 2000
    Продолжительность : 1 ч. 23 м.
    Вид битрейта : Постоянный
    Битрейт : 192 Кбит/сек
    Каналы : 2 канала
    Расположение каналов : Front: L R
    Частота : 48,0 КГц
    Битовая глубина : 16 бит
    Метод сжатия : С потерями
    Размер потока : 114 Мбайт (8%)
    Выравнивание : Разделение по промежуткам
    Продолжительность промежутка : 96 мс. (2,40 видеокадра)
    Время предзагрузки промежутка : 96 мс.
    Язык

    Скриншот c названием фильма

    Скриншоты

    Скачать .torrent

    Скачать торрент-файл бесплатно и на максимальной скорости!

    Как скачивать? · Что такое торрент? · Рейтинг и ограничения

    !ВНИМАНИЕ!
    Сайт не распространяет и не хранит электронные версии произведений, а занимается лишь лишь предоставлением доступа к создаваемому пользователями каталогу ссылок на торрент-файлы, которые содержат только списки хеш-сумм, убедительная просьба с жалобами обращаться напрямую к пользователю. Файлы для обмена на трекере предоставлены пользователями сайта, и администрация не несёт ответственности за их содержание. Просьба не заливать файлы, защищенные авторскими правами, а также файлы нелегального содержания!

    [Профиль] [ЛС]
    Показать сообщения:    
    Ответить на тему

    Текущее время: Сегодня, в 08:00

    Часовой пояс: GMT + 2



    Вы не можете начинать темы
    Вы не можете отвечать на сообщения
    Вы не можете редактировать свои сообщения
    Вы не можете удалять свои сообщения
    Вы не можете голосовать в опросах
    Вы не можете прикреплять файлы к сообщениям
    Вы не можете скачивать файлы