BitTorrentTracker PerecTracker.org
BitTorrentTracker PerecTracker.org
    
Регистрация  ·  Вход
 
 · 
Забыли пароль?

  • Орел и решка. Шопинг (1-15 выпуски) [2014, Реалити-шоу, путешествия, познавательный, WEBRip]

    Ответить на тему
     
    Автор Сообщение

    Columb

    Создавать темы 28-Май-2014 10:19

           

    [Цитировать]

    Орел и решка. Шопинг
    Дата/Год выпуска: 2014
    Страна: Россия
    Жанр: Реалити-шоу, путешествия, познавательный
    Продолжительность: 14 х ~ 00:44:48
    Перевод: Не требуется
    Русские субтитры: нет
    Телеканал: Пятница
    Описание: Ведущие пройдутся по самым популярным заграничным шопинг-маршрутам. Дорогие бутики и блошиные рынки, новые имена в индустрии моды и раритетные винтажные вещицы — ведущие проинспектируют все. Эта программа — настоящий кладезь полезной информации для шопоголиков. Ведущие посетят: Гонконг, Майами, Канкун, Мехико, Сингапур, Ханой, Куала-Лумпур и многие другие города. «Орел и решка. Шопинг» — это самостоятельный и параллельный проект с основной программой
    качество: WEBRip
    формат: AVI
    Видео: MPEG4, XviD, 720x400 (16:9), 25.000 fps, ~1 693 Kbps (0.235 bit/pixel)
    Аудио: MP3, 48.0 KHz, 2 ch, 128 Kbps, CBR

    Список выпусков/серий

    01. Нью-Йорк
    02. Майами
    03. Мехико
    04. Гонконг
    05. Сингапур
    06. Куала-Лумпур
    07. Ханой
    08. Дубай
    09. Дели
    10. Стамбул
    11. Тель-Авив
    12. Лос-Анджелес
    13. Лима (Перу)
    14. Сантьяго
    15. Буэнос-Айрес

    MediaInfo

    ОбщееПолное имя : K:\Orel.i.reshka.2014.WEB-DLRip\Orel.i.reshka.Shoping.(1.sezon.07.vypusk).Xanoia.Vietnam.2014.XviD.WEB-DLRip.aviФормат : AVIФормат/Информация : Audio Video InterleaveРазмер файла : 572 МбайтПродолжительность : 43 м.Общий поток : 1831 Кбит/секПрограмма кодирования : VirtualDubMod 1.5.10.2 (build 2542/release)Библиотека кодирования : VirtualDubMod build 2542/release
    ВидеоИдентификатор : 0Формат : MPEG-4 VisualПрофиль формата : Advanced Simple@L5Параметр BVOP формата : 2Параметр QPel формата : НетПараметр GMC формата : Без точки переходаПараметр матрицы формата : Default (H.263)Режим смешивания : Сжатый битовый потокИдентификатор кодека : XVIDИдентификатор кодека/Подсказка : XviDПродолжительность : 43 м.Битрейт : 1693 Кбит/секШирина : 720 пикселейВысота : 400 пикселейСоотношение сторон : 16:9Частота кадров : 25,000 кадров/секЦветовое пространство : YUVСубдискретизация насыщенности : 4:2:0Битовая глубина : 8 битТип развёртки : ПрогрессивнаяМетод сжатия : С потерямиБит/(Пиксели*Кадры) : 0.235Размер потока : 529 Мбайт (92%)Библиотека кодирования : XviD 64
    АудиоИдентификатор : 1Формат : MPEG AudioВерсия формата : Version 1Профиль формата : Layer 3Режим : Joint stereoРасширение режима : MS StereoИдентификатор кодека : 55Идентификатор кодека/Подсказка : MP3Продолжительность : 43 м.Вид битрейта : ПостоянныйБитрейт : 128 Кбит/секКаналы : 2 каналаЧастота : 48,0 КГцМетод сжатия : С потерямиРазмер потока : 40,0 Мбайт (7%)Выравнивание : Разделение по промежуткамПродолжительность промежутка : 40 мс. (1,00 видеокадр)Время предзагрузки промежутка : 500 мс.

    Скриншоты

    Скачать .torrent

    Скачать торрент-файл бесплатно и на максимальной скорости!

    Как скачивать? · Что такое торрент? · Рейтинг и ограничения

    !ВНИМАНИЕ!
    Сайт не распространяет и не хранит электронные версии произведений, а занимается лишь лишь предоставлением доступа к создаваемому пользователями каталогу ссылок на торрент-файлы, которые содержат только списки хеш-сумм, убедительная просьба с жалобами обращаться напрямую к пользователю. Файлы для обмена на трекере предоставлены пользователями сайта, и администрация не несёт ответственности за их содержание. Просьба не заливать файлы, защищенные авторскими правами, а также файлы нелегального содержания!

    [Профиль] [ЛС]
    Показать сообщения:    
    Ответить на тему

    Текущее время: Сегодня, в 23:56

    Часовой пояс: GMT + 2



    Вы не можете начинать темы
    Вы не можете отвечать на сообщения
    Вы не можете редактировать свои сообщения
    Вы не можете удалять свои сообщения
    Вы не можете голосовать в опросах
    Вы не можете прикреплять файлы к сообщениям
    Вы не можете скачивать файлы