BitTorrentTracker PerecTracker.org
BitTorrentTracker PerecTracker.org
    
Регистрация  ·  Вход
 
 · 
Забыли пароль?

  • Пираньи / Piranha (Скотт П. Леви / Scott P. Levy) [1995, США, ужасы, DVDRip-AVC] MVO

    Ответить на тему
     
    Автор Сообщение

    Columb

    Создавать темы 28-Май-2014 10:10

           

    [Цитировать]

    Пираньи / Piranha
    Страна: США
    Жанр: ужасы
    Год выпуска: 1995
    Продолжительность: 01:26:52
    Перевод: Профессиональный (многоголосый закадровый)
    Cубтитры: нет
    Режиссер: Скотт П. Леви / Scott P. Levy
    В ролях: Александра Пол /Alexandra Paul/, Уильям Кэтт /William Katt/, Дарлин Карр, Солейл Мун Фрай, Джеймс Кэрен /James Karen/, Майла Кунис, Кели О'Бирн /Kehli O'Byrne/, Ричард Израэл, Кац Гэрэс, Лилэнд Орсер /Leland Orser/, Бен Слэк, Джеймс И. Бродхед, Монти Маркэм /Monty Markham/...
    Описание: Закончилась ли холодная война, если ее наследие угрожает всему человечеству? Развалившиеся бараки, затянутый тиной бассейн, ржавые конструкции — вот, пожалуй, и все, что осталось от секретной военной базы. Очаровательная женщина — детектив и писатель — отшельник, попав на эти руины холодной войны в поисках пропавшей парочки влюбленных, сливают воду из бассейна в соседнюю речушку. Откуда им было знать, что здесь выводили гигантских пираний, стремительно размножающихся и пожирающих все на своем пути — смертельное оружие массового поражения. Из речки рыбы — людоеды попадают в озеро, и если они доберутся до океана, на земле может исчезнуть все живое!
    Сэмпл: http://sendfile.su/984065 http://multi-up.com/976483
    Качество видео: DVDRip-AVC
    Формат видео: MKV
    Видео: 696->744x572 (4:3), 25 fps, H264 ~ 1949 kbps avg, 0.196 bit/pixel
    Аудио: 48 kHz, Dolby Digital AC3 5.1, 448 kbps

    MediaInfo

    Общее
    Полное имя : Pirani.1995.DVDRip-AVC_[New-team]_by_AVP_Studio.mkv
    Формат : Matroska
    Версия формата : Version 2
    Размер файла : 1,46 Гбайт
    Продолжительность : 1 ч. 26 м.
    Общий поток : 2399 Кбит/сек
    Дата кодирования : UTC 2014-05-27 00:16:23
    Программа кодирования : mkvmerge v6.1.0 ('Old Devil') built on Mar 4 2013 09:10:42
    Библиотека кодирования : libebml v1.3.0 + libmatroska v1.4.0
    Видео
    Идентификатор : 1
    Формат : AVC
    Формат/Информация : Advanced Video Codec
    Профиль формата : High@L4.1
    Параметр CABAC формата : Да
    Параметр ReFrames формата : 8 кадров
    Идентификатор кодека : V_MPEG4/ISO/AVC
    Продолжительность : 1 ч. 26 м.
    Битрейт : 1949 Кбит/сек
    Ширина : 696 пикселей
    Высота : 572 пикселя
    Соотношение сторон : 4:3
    Режим частоты кадров : Постоянный
    Частота кадров : 25,000 кадров/сек
    Цветовое пространство : YUV
    Субдискретизация насыщенности : 4:2:0
    Битовая глубина : 8 бит
    Тип развёртки : Прогрессивная
    Бит/(Пиксели*Кадры) : 0.196
    Размер потока : 1,15 Гбайт (79%)
    Библиотека кодирования : x264 core 138 r2356 a1d3d17
    Настройки программы : cabac=1 / ref=8 / deblock=1:-2:-1 / analyse=0x3:0x113 / me=umh / subme=10 / psy=1 / psy_rd=1.00:0.05 / mixed_ref=1 / me_range=32 / chroma_me=1 / trellis=2 / 8x8dct=1 / cqm=0 / deadzone=21,11 / fast_pskip=0 / chroma_qp_offset=-3 / threads=6 / lookahead_threads=1 / sliced_threads=0 / nr=0 / decimate=0 / interlaced=0 / bluray_compat=0 / constrained_intra=0 / bframes=8 / b_pyramid=2 / b_adapt=2 / b_bias=0 / direct=3 / weightb=1 / open_gop=0 / weightp=2 / keyint=250 / keyint_min=25 / scenecut=40 / intra_refresh=0 / rc=2pass / mbtree=0 / bitrate=1949 / ratetol=1.0 / qcomp=0.60 / qpmin=0 / qpmax=69 / qpstep=4 / cplxblur=20.0 / qblur=0.5 / ip_ratio=1.40 / pb_ratio=1.30 / aq=1:1.00
    Default : Да
    Forced : Нет
    Аудио
    Идентификатор : 2
    Формат : AC-3
    Формат/Информация : Audio Coding 3
    Расширение режима : CM (complete main)
    Параметр Endianness формата : Big
    Идентификатор кодека : A_AC3
    Продолжительность : 1 ч. 26 м.
    Вид битрейта : Постоянный
    Битрейт : 448 Кбит/сек
    Каналы : 6 каналов
    Расположение каналов : Front: L C R, Side: L R, LFE
    Частота : 48,0 КГц
    Битовая глубина : 16 бит
    Метод сжатия : С потерями
    Размер потока : 278 Мбайт (19%)
    Default : Да
    Forced : Нет

    Скриншот c названием фильма

    Скриншоты

    Скачать .torrent

    Скачать торрент-файл бесплатно и на максимальной скорости!

    Как скачивать? · Что такое торрент? · Рейтинг и ограничения

    !ВНИМАНИЕ!
    Сайт не распространяет и не хранит электронные версии произведений, а занимается лишь лишь предоставлением доступа к создаваемому пользователями каталогу ссылок на торрент-файлы, которые содержат только списки хеш-сумм, убедительная просьба с жалобами обращаться напрямую к пользователю. Файлы для обмена на трекере предоставлены пользователями сайта, и администрация не несёт ответственности за их содержание. Просьба не заливать файлы, защищенные авторскими правами, а также файлы нелегального содержания!

    [Профиль] [ЛС]
    Показать сообщения:    
    Ответить на тему

    Текущее время: Сегодня, в 12:50

    Часовой пояс: GMT + 2



    Вы не можете начинать темы
    Вы не можете отвечать на сообщения
    Вы не можете редактировать свои сообщения
    Вы не можете удалять свои сообщения
    Вы не можете голосовать в опросах
    Вы не можете прикреплять файлы к сообщениям
    Вы не можете скачивать файлы