BitTorrentTracker PerecTracker.org
BitTorrentTracker PerecTracker.org
    
Регистрация  ·  Вход
 
 · 
Забыли пароль?

  • (Score) The Cinematographic Score - GTA 5 [Grand Theft Auto V] (by Tangerine Dream) - 2014, FLAC (tracks+.cue), lossless

    Ответить на тему
     
    Автор Сообщение

    Columb

    Создавать темы 12-Май-2014 12:13

           

    [Цитировать]

    The Cinematographic Score - GTA 5Жанр: Score
    Композитор: Tangerine Dream
    Год выпуска диска: 2014
    Издатель (лейбл): EASTGATE Music
    Аудиокодек: FLAC (*.flac)
    Тип рипа: tracks+.cue
    Битрейт аудио: lossless
    Продолжительность: 01:03:38
    Источник: собственный рип
    Наличие сканов в содержимом раздачи: нет
    Треклист:
    01. Place Of Conclusions
    02. Streets Of Fortune
    03. Mission Possible
    04. Downtown Los Santos
    05. Blaine County Sunrise
    06. Burning The Bad Seal
    07. Beyond The Weakest Point
    08. Sadness, Grief and Hope
    09. Diary Of A Robbery
    10. Draw The Last Line Somewhere
    11. The Dangerous Mile
    12. Living On A Razor Edge

    Лог создания рипа

    Exact Audio Copy V1.0 beta 3 from 29. August 2011
    EAC extraction logfile from 27. April 2014, 12:27
    Tangerine Dream / GTA 5 - Cinematographic Score
    Used drive : TSSTcorpCDDVDW SH-S222A Adapter: 4 ID: 0
    Read mode : SecureUtilize accurate stream : YesDefeat audio cache : YesMake use of C2 pointers : No
    Read offset correction : 6Overread into Lead-In and Lead-Out : NoFill up missing offset samples with silence : YesDelete leading and trailing silent blocks : NoNull samples used in CRC calculations : YesUsed interface : Native Win32 interface for Win NT & 2000Gap handling : Appended to previous track
    Used output format : User Defined EncoderSelected bitrate : 1024 kBit/sQuality : HighAdd ID3 tag : NoCommand line compressor : D:\Program Files (x86)\FLAC\flac.exeAdditional command line options : -V -8 -T "Genre=%genre%" -T "Artist=%artist%" -T "Title=%title%" -T "Album=%albumtitle%" -T "Date=%year%" -T "Tracknumber=%tracknr%" -T "Comment=%comment%" %source%
    TOC of the extracted CD
    Track | Start | Length | Start sector | End sector --------------------------------------------------------- 1 | 0:00.00 | 5:14.59 | 0 | 23608 2 | 5:14.59 | 4:53.56 | 23609 | 45639 3 | 10:08.40 | 4:14.51 | 45640 | 64740 4 | 14:23.16 | 5:05.36 | 64741 | 87651 5 | 19:28.52 | 5:25.52 | 87652 | 112078 6 | 24:54.29 | 5:17.22 | 112079 | 135875 7 | 30:11.51 | 6:09.00 | 135876 | 163550 8 | 36:20.51 | 4:37.40 | 163551 | 184365 9 | 40:58.16 | 5:35.49 | 184366 | 209539 10 | 46:33.65 | 6:12.41 | 209540 | 237480 11 | 52:46.31 | 5:41.47 | 237481 | 263102 12 | 58:28.03 | 5:16.39 | 263103 | 286841
    Track 1
    Filename C:\Spybionic\The Cinematographic Score GTA 5 - 2014 - Tangerine Dream\01. Place Of Conclusions.wav
    Pre-gap length 0:00:02.00
    Peak level 98.6 % Extraction speed 4.7 X Track quality 100.0 % Test CRC 52CD3442 Copy CRC 52CD3442 Copy OK
    Track 2
    Filename C:\Spybionic\The Cinematographic Score GTA 5 - 2014 - Tangerine Dream\02. Streets Of Fortune.wav
    Peak level 98.6 % Extraction speed 5.3 X Track quality 100.0 % Test CRC 756DBB2A Copy CRC 756DBB2A Copy OK
    Track 3
    Filename C:\Spybionic\The Cinematographic Score GTA 5 - 2014 - Tangerine Dream\03. Mission Possible.wav
    Peak level 98.6 % Extraction speed 5.6 X Track quality 100.0 % Test CRC 579B2FC6 Copy CRC 579B2FC6 Copy OK
    Track 4
    Filename C:\Spybionic\The Cinematographic Score GTA 5 - 2014 - Tangerine Dream\04. Downtown Los Santos.wav
    Peak level 98.6 % Extraction speed 6.2 X Track quality 100.0 % Test CRC 2699AB3C Copy CRC 2699AB3C Copy OK
    Track 5
    Filename C:\Spybionic\The Cinematographic Score GTA 5 - 2014 - Tangerine Dream\05. Blaine County Sunrise.wav
    Peak level 98.6 % Extraction speed 6.1 X Track quality 99.9 % Test CRC 6BC1C91D Copy CRC 6BC1C91D Copy OK
    Track 6
    Filename C:\Spybionic\The Cinematographic Score GTA 5 - 2014 - Tangerine Dream\06. Burning The Bad Seal.wav
    Peak level 98.6 % Extraction speed 7.1 X Track quality 100.0 % Test CRC 1B438956 Copy CRC 1B438956 Copy OK
    Track 7
    Filename C:\Spybionic\The Cinematographic Score GTA 5 - 2014 - Tangerine Dream\07. Beyond The Weakest Point.wav
    Peak level 98.6 % Extraction speed 7.7 X Track quality 100.0 % Test CRC B6D687B0 Copy CRC B6D687B0 Copy OK
    Track 8
    Filename C:\Spybionic\The Cinematographic Score GTA 5 - 2014 - Tangerine Dream\08. Sadness, Grief and Hope.wav
    Peak level 98.6 % Extraction speed 7.0 X Track quality 99.9 % Test CRC 1024DB7D Copy CRC 1024DB7D Copy OK
    Track 9
    Filename C:\Spybionic\The Cinematographic Score GTA 5 - 2014 - Tangerine Dream\09. Diary Of A Robbery.wav
    Peak level 98.6 % Extraction speed 7.5 X Track quality 99.9 % Test CRC 3A9CFABF Copy CRC 3A9CFABF Copy OK
    Track 10
    Filename C:\Spybionic\The Cinematographic Score GTA 5 - 2014 - Tangerine Dream\10. Draw The Last Line Somewhere.wav
    Peak level 98.6 % Extraction speed 8.6 X Track quality 100.0 % Test CRC D9E64E47 Copy CRC D9E64E47 Copy OK
    Track 11
    Filename C:\Spybionic\The Cinematographic Score GTA 5 - 2014 - Tangerine Dream\11. The Dangerous Mile.wav
    Peak level 98.6 % Extraction speed 8.1 X Track quality 99.9 % Test CRC F124F77C Copy CRC F124F77C Copy OK
    Track 12
    Filename C:\Spybionic\The Cinematographic Score GTA 5 - 2014 - Tangerine Dream\12. Living On A Razor Edge.wav
    Peak level 98.6 % Extraction speed 9.1 X Track quality 100.0 % Test CRC E3FA7FBC Copy CRC E3FA7FBC Copy OK
    No errors occurred
    End of status report
    ==== Log checksum 70878C3CB4B29DF73FE8D3A9C36A82395EFF97FA5F60F55C194CE5DDD7F4A32F ====

    Содержание индексной карты (.CUE)

    REM GENRE SoundtrackREM DATE 2014REM DISCID 9B0EF00CREM COMMENT "ExactAudioCopy v1.0b3"PERFORMER "Tangerine Dream"TITLE "GTA 5 - Cinematographic Score"FILE "01. Place Of Conclusions.wav" WAVE TRACK 01 AUDIO TITLE "Place Of Conclusions" PERFORMER "Tangerine Dream" INDEX 01 00:00:00FILE "02. Streets Of Fortune.wav" WAVE TRACK 02 AUDIO TITLE "Streets Of Fortune" PERFORMER "Tangerine Dream" INDEX 01 00:00:00FILE "03. Mission Possible.wav" WAVE TRACK 03 AUDIO TITLE "Mission Possible" PERFORMER "Tangerine Dream" INDEX 01 00:00:00FILE "04. Downtown Los Santos.wav" WAVE TRACK 04 AUDIO TITLE "Downtown Los Santos" PERFORMER "Tangerine Dream" INDEX 01 00:00:00FILE "05. Blaine County Sunrise.wav" WAVE TRACK 05 AUDIO TITLE "Blaine County Sunrise" PERFORMER "Tangerine Dream" INDEX 01 00:00:00FILE "06. Burning The Bad Seal.wav" WAVE TRACK 06 AUDIO TITLE "Burning The Bad Seal" PERFORMER "Tangerine Dream" INDEX 01 00:00:00FILE "07. Beyond The Weakest Point.wav" WAVE TRACK 07 AUDIO TITLE "Beyond The Weakest Point" PERFORMER "Tangerine Dream" INDEX 01 00:00:00FILE "08. Sadness, Grief and Hope.wav" WAVE TRACK 08 AUDIO TITLE "Sadness, Grief and Hope" PERFORMER "Tangerine Dream" INDEX 01 00:00:00FILE "09. Diary Of A Robbery.wav" WAVE TRACK 09 AUDIO TITLE "Diary Of A Robbery" PERFORMER "Tangerine Dream" INDEX 01 00:00:00FILE "10. Draw The Last Line Somewhere.wav" WAVE TRACK 10 AUDIO TITLE "Draw The Last Line Somewhere" PERFORMER "Tangerine Dream" INDEX 01 00:00:00FILE "11. The Dangerous Mile.wav" WAVE TRACK 11 AUDIO TITLE "The Dangerous Mile" PERFORMER "Tangerine Dream" INDEX 01 00:00:00FILE "12. Living On A Razor Edge.wav" WAVE TRACK 12 AUDIO TITLE "Living On A Razor Edge" PERFORMER "Tangerine Dream" INDEX 01 00:00:00
    Скачать .torrent

    Скачать торрент-файл бесплатно и на максимальной скорости!

    Как скачивать? · Что такое торрент? · Рейтинг и ограничения

    !ВНИМАНИЕ!
    Сайт не распространяет и не хранит электронные версии произведений, а занимается лишь лишь предоставлением доступа к создаваемому пользователями каталогу ссылок на торрент-файлы, которые содержат только списки хеш-сумм, убедительная просьба с жалобами обращаться напрямую к пользователю. Файлы для обмена на трекере предоставлены пользователями сайта, и администрация не несёт ответственности за их содержание. Просьба не заливать файлы, защищенные авторскими правами, а также файлы нелегального содержания!

    [Профиль] [ЛС]
    Показать сообщения:    
    Ответить на тему

    Текущее время: Сегодня, в 01:58

    Часовой пояс: GMT + 2



    Вы не можете начинать темы
    Вы не можете отвечать на сообщения
    Вы не можете редактировать свои сообщения
    Вы не можете удалять свои сообщения
    Вы не можете голосовать в опросах
    Вы не можете прикреплять файлы к сообщениям
    Вы не можете скачивать файлы