BitTorrentTracker PerecTracker.org
BitTorrentTracker PerecTracker.org
    
Регистрация  ·  Вход
 
 · 
Забыли пароль?

  • (Score) The Music of Diablo 1996 - 2011: Diablo 15 Year Anniversary (by Matt Uelmen) - 2012, WMA (tracks+.cue), lossless

    Ответить на тему
     
    Автор Сообщение

    Columb

    Создавать темы 11-Май-2014 08:36

           

    [Цитировать]

    The Music of Diablo 1996 - 2011: Diablo 15 Year Anniversary
    саундтрек
    The Music of Diablo 1996 - 2011 – альбом, выпущенный специально к пятнадцатилетию первой игры серии Diablo, написанный Мэттом Уэлменом. Blizzard
    Альбом: The Music of Diablo 1996 - 2011
    Композитор: Мэтт Уэлмен
    Жанр: Soundtrack
    Год: 2012

    Подробнее


    Файлы
    Тип элемента: Файл Windows Media Audio (.wma)
    Размер: 422 МБ
    Продолжительность: 1:17:23
    Аудио
    Скорость потока: 673-865 кбит в сек
    Частота дискретизации: 44100
    Каналы: 2
    Бит на сэмпл: 16
    Дорожки
    1. Diablo Intro 01:43
    2. Tristram 07:41
    3. Dungeon 04:23
    4. Catacombs 05:59
    5. Caves 04:56
    6. Hell 04:08
    7. Ancients 01:47
    8. Fortress 04:49
    9. Ice Caves 04:39
    10. Siege 06:47
    11. Maggot 02:22
    12. Harem 03:45
    13. Temple 04:33
    14. Sewer 03:57
    15. Docks 02:07
    16. Halls 03:30
    17. Kurast 05:12
    18. Lord (Diablo III Concept Music) 03:32
    19. Hydra (Diablo III Concept Music) 01:34
    О раздаче
    • Источник - forums.ffshrine.org
    Дубликат источника на облаке mail.ru (FLAC + covers + cue).
    • Раздача находится на буржуйском трекере в единственном, доступном быстрому поиску, экземпляре, поэтому было решено продублировать здесь. Да и у нас нет такой раздачи в любом виде.
    • Перекодировал в WMA-Lossless для своей библиотеки, чтобы не дублировать раздачу в двух форматах. Кому нужен FLAC - ↑.
    • Качественной обложки не нашлось, поэтому взял отсюда.
    • Название альбома в тегах - "Diablo I". Это сделано для себя.
    • Дату выхода взял с того же сайта, с которого брал обложку. В магазине iTunes стоит 2011 год.
    • Diablo I Soundtrack FLAC

    Спектры MP3/M4a(iTunes)/WMA - 1 канал

    Cue

    REM GENRE GameREM DATE 2011REM DISCID 05122313REM COMMENT "ExactAudioCopy v1.0b3"PERFORMER "Matt Uelmen"TITLE "The Music of Diablo 1996-2011 - Diablo 15 Year Anniversary"FILE "01 - Diablo Intro.wav" WAVE TRACK 01 AUDIO TITLE "Diablo Intro" PERFORMER "Matt Uelmen" INDEX 01 00:00:00FILE "02 - Tristram.wav" WAVE TRACK 02 AUDIO TITLE "Tristram" PERFORMER "Matt Uelmen" INDEX 01 00:00:00FILE "03 - Dungeon.wav" WAVE TRACK 03 AUDIO TITLE "Dungeon" PERFORMER "Matt Uelmen" INDEX 01 00:00:00FILE "04 - Catacombs.wav" WAVE TRACK 04 AUDIO TITLE "Catacombs" PERFORMER "Matt Uelmen" INDEX 01 00:00:00FILE "05 - Caves.wav" WAVE TRACK 05 AUDIO TITLE "Caves" PERFORMER "Matt Uelmen" INDEX 01 00:00:00FILE "06 - Hell.wav" WAVE TRACK 06 AUDIO TITLE "Hell" PERFORMER "Matt Uelmen" INDEX 01 00:00:00FILE "07 - Ancients (Lord of Destruction Intro).wav" WAVE TRACK 07 AUDIO TITLE "Ancients (Lord of Destruction Intro)" PERFORMER "Matt Uelmen" INDEX 01 00:00:00FILE "08 - Fortress.wav" WAVE TRACK 08 AUDIO TITLE "Fortress" PERFORMER "Matt Uelmen" INDEX 01 00:00:00FILE "09 - Ice Caves.wav" WAVE TRACK 09 AUDIO TITLE "Ice Caves" PERFORMER "Matt Uelmen" INDEX 01 00:00:00FILE "10 - Siege.wav" WAVE TRACK 10 AUDIO TITLE "Siege" PERFORMER "Matt Uelmen" INDEX 01 00:00:00FILE "11 - Maggot.wav" WAVE TRACK 11 AUDIO TITLE "Maggot" PERFORMER "Matt Uelmen" INDEX 01 00:00:00FILE "12 - Harem.wav" WAVE TRACK 12 AUDIO TITLE "Harem" PERFORMER "Matt Uelmen" INDEX 01 00:00:00FILE "13 - Temple.wav" WAVE TRACK 13 AUDIO TITLE "Temple" PERFORMER "Matt Uelmen" INDEX 01 00:00:00FILE "14 - Sewer.wav" WAVE TRACK 14 AUDIO TITLE "Sewer" PERFORMER "Matt Uelmen" INDEX 01 00:00:00FILE "15 - Docks.wav" WAVE TRACK 15 AUDIO TITLE "Docks" PERFORMER "Matt Uelmen" INDEX 01 00:00:00FILE "16 - Halls.wav" WAVE TRACK 16 AUDIO TITLE "Halls" PERFORMER "Matt Uelmen" INDEX 01 00:00:00FILE "17 - Kurast.wav" WAVE TRACK 17 AUDIO TITLE "Kurast" PERFORMER "Matt Uelmen" INDEX 01 00:00:00FILE "18 - Lord (Diablo III Concept Music).wav" WAVE TRACK 18 AUDIO TITLE "Lord (Diablo III Concept Music)" PERFORMER "Matt Uelmen" INDEX 01 00:00:00FILE "19 - Hydra (Diablo III Concept Music).wav" WAVE TRACK 19 AUDIO TITLE "Hydra (Diablo III Concept Music)" PERFORMER "Matt Uelmen" INDEX 01 00:00:00

    Log

    Exact Audio Copy V1.0 beta 3 from 29. August 2011
    EAC extraction logfile from 6. December 2011, 11:55
    Matt Uelmen / The Music of Diablo 1996-2011 - Diablo 15 Year Anniversary
    Used drive : Optiarc DVD-ROM DDU1675S Adapter: 3 ID: 0
    Read mode : SecureUtilize accurate stream : YesDefeat audio cache : YesMake use of C2 pointers : No
    Read offset correction : 6Overread into Lead-In and Lead-Out : NoFill up missing offset samples with silence : YesDelete leading and trailing silent blocks : NoNull samples used in CRC calculations : YesUsed interface : Native Win32 interface for Win NT & 2000Gap handling : Appended to previous track
    Used output format : User Defined EncoderSelected bitrate : 896 kBit/sQuality : HighAdd ID3 tag : NoCommand line compressor : C:\Programme\Exact Audio Copy\FLAC\FLAC.EXEAdditional command line options : -6 -V -T "ARTIST=%artist%" -T "TITLE=%title%" -T "ALBUM=%albumtitle%" -T "DATE=%year%" -T "TRACKNUMBER=%tracknr%" -T "GENRE=%genre%" -T "COMMENT=%comment%" %hascover%--picture="%coverfile%"%hascover% %source% -o %dest%
    TOC of the extracted CD
    Track | Start | Length | Start sector | End sector --------------------------------------------------------- 1 | 0:00.00 | 1:43.73 | 0 | 7797 2 | 1:43.73 | 7:41.30 | 7798 | 42402 3 | 9:25.28 | 4:23.07 | 42403 | 62134 4 | 13:48.35 | 5:49.46 | 62135 | 88355 5 | 19:38.06 | 4:56.49 | 88356 | 110604 6 | 24:34.55 | 4:08.00 | 110605 | 129204 7 | 28:42.55 | 1:47.23 | 129205 | 137252 8 | 30:30.03 | 4:49.66 | 137253 | 158993 9 | 35:19.69 | 4:39.03 | 158994 | 179921 10 | 39:58.72 | 6:47.43 | 179922 | 210489 11 | 46:46.40 | 2:22.57 | 210490 | 221196 12 | 49:09.22 | 3:45.08 | 221197 | 238079 13 | 52:54.30 | 4:33.06 | 238080 | 258560 14 | 57:27.36 | 3:57.42 | 258561 | 276377 15 | 61:25.03 | 2:07.68 | 276378 | 285970 16 | 63:32.71 | 3:30.60 | 285971 | 301780 17 | 67:03.56 | 5:12.23 | 301781 | 325203 18 | 72:16.04 | 3:32.36 | 325204 | 341139 19 | 75:48.40 | 1:34.52 | 341140 | 348241
    Track 1
    Filename J:\Ongaku\Video Game\Blizzard\Diablo\[FLAC] [2001.10.21] The Music of Diablo 1996-2011 - Diablo 15 Year Anniversary\01 - Diablo Intro.wav
    Pre-gap length 0:00:02.00
    Peak level 98.8 % Extraction speed 3.2 X Track quality 100.0 % Test CRC FEF08276 Copy CRC FEF08276 Track not present in AccurateRip database Copy OK
    Track 2
    Filename J:\Ongaku\Video Game\Blizzard\Diablo\[FLAC] [2001.10.21] The Music of Diablo 1996-2011 - Diablo 15 Year Anniversary\02 - Tristram.wav
    Peak level 78.8 % Extraction speed 4.4 X Track quality 100.0 % Test CRC 5DCA6716 Copy CRC 5DCA6716 Track not present in AccurateRip database Copy OK
    Track 3
    Filename J:\Ongaku\Video Game\Blizzard\Diablo\[FLAC] [2001.10.21] The Music of Diablo 1996-2011 - Diablo 15 Year Anniversary\03 - Dungeon.wav
    Peak level 98.8 % Extraction speed 4.7 X Track quality 100.0 % Test CRC 308C1DEE Copy CRC 308C1DEE Track not present in AccurateRip database Copy OK
    Track 4
    Filename J:\Ongaku\Video Game\Blizzard\Diablo\[FLAC] [2001.10.21] The Music of Diablo 1996-2011 - Diablo 15 Year Anniversary\04 - Catacombs.wav
    Peak level 83.2 % Extraction speed 4.4 X Track quality 99.9 % Test CRC 46591A22 Copy CRC 46591A22 Track not present in AccurateRip database Copy OK
    Track 5
    Filename J:\Ongaku\Video Game\Blizzard\Diablo\[FLAC] [2001.10.21] The Music of Diablo 1996-2011 - Diablo 15 Year Anniversary\05 - Caves.wav
    Peak level 98.8 % Extraction speed 4.6 X Track quality 100.0 % Test CRC EB56000C Copy CRC EB56000C Track not present in AccurateRip database Copy OK
    Track 6
    Filename J:\Ongaku\Video Game\Blizzard\Diablo\[FLAC] [2001.10.21] The Music of Diablo 1996-2011 - Diablo 15 Year Anniversary\06 - Hell.wav
    Peak level 83.6 % Extraction speed 3.3 X Track quality 99.9 % Test CRC A8F5603B Copy CRC A8F5603B Track not present in AccurateRip database Copy OK
    Track 7
    Filename J:\Ongaku\Video Game\Blizzard\Diablo\[FLAC] [2001.10.21] The Music of Diablo 1996-2011 - Diablo 15 Year Anniversary\07 - Ancients (Lord of Destruction Intro).wav
    Peak level 96.8 % Extraction speed 3.0 X Track quality 100.0 % Test CRC 318B0442 Copy CRC 318B0442 Track not present in AccurateRip database Copy OK
    Track 8
    Filename J:\Ongaku\Video Game\Blizzard\Diablo\[FLAC] [2001.10.21] The Music of Diablo 1996-2011 - Diablo 15 Year Anniversary\08 - Fortress.wav
    Peak level 98.8 % Extraction speed 3.9 X Track quality 100.0 % Test CRC EC20839E Copy CRC EC20839E Track not present in AccurateRip database Copy OK
    Track 9
    Filename J:\Ongaku\Video Game\Blizzard\Diablo\[FLAC] [2001.10.21] The Music of Diablo 1996-2011 - Diablo 15 Year Anniversary\09 - Ice Caves.wav
    Peak level 98.8 % Extraction speed 4.1 X Track quality 100.0 % Test CRC 6DC76C02 Copy CRC 6DC76C02 Track not present in AccurateRip database Copy OK
    Track 10
    Filename J:\Ongaku\Video Game\Blizzard\Diablo\[FLAC] [2001.10.21] The Music of Diablo 1996-2011 - Diablo 15 Year Anniversary\10 - Siege.wav
    Peak level 98.8 % Extraction speed 4.3 X Track quality 100.0 % Test CRC 148FAABD Copy CRC 148FAABD Track not present in AccurateRip database Copy OK
    Track 11
    Filename J:\Ongaku\Video Game\Blizzard\Diablo\[FLAC] [2001.10.21] The Music of Diablo 1996-2011 - Diablo 15 Year Anniversary\11 - Maggot.wav
    Peak level 71.1 % Extraction speed 3.4 X Track quality 99.9 % Test CRC E8B9CC33 Copy CRC E8B9CC33 Track not present in AccurateRip database Copy OK
    Track 12
    Filename J:\Ongaku\Video Game\Blizzard\Diablo\[FLAC] [2001.10.21] The Music of Diablo 1996-2011 - Diablo 15 Year Anniversary\12 - Harem.wav
    Peak level 76.7 % Extraction speed 3.7 X Track quality 99.9 % Test CRC 41DA8786 Copy CRC 41DA8786 Track not present in AccurateRip database Copy OK
    Track 13
    Filename J:\Ongaku\Video Game\Blizzard\Diablo\[FLAC] [2001.10.21] The Music of Diablo 1996-2011 - Diablo 15 Year Anniversary\13 - Temple.wav
    Peak level 84.7 % Extraction speed 3.7 X Track quality 100.0 % Test CRC A465B700 Copy CRC A465B700 Track not present in AccurateRip database Copy OK
    Track 14
    Filename J:\Ongaku\Video Game\Blizzard\Diablo\[FLAC] [2001.10.21] The Music of Diablo 1996-2011 - Diablo 15 Year Anniversary\14 - Sewer.wav
    Peak level 92.2 % Extraction speed 4.7 X Track quality 100.0 % Test CRC AA96C6B1 Copy CRC AA96C6B1 Track not present in AccurateRip database Copy OK
    Track 15
    Filename J:\Ongaku\Video Game\Blizzard\Diablo\[FLAC] [2001.10.21] The Music of Diablo 1996-2011 - Diablo 15 Year Anniversary\15 - Docks.wav
    Peak level 76.9 % Extraction speed 4.1 X Track quality 100.0 % Test CRC ED0EE911 Copy CRC ED0EE911 Track not present in AccurateRip database Copy OK
    Track 16
    Filename J:\Ongaku\Video Game\Blizzard\Diablo\[FLAC] [2001.10.21] The Music of Diablo 1996-2011 - Diablo 15 Year Anniversary\16 - Halls.wav
    Peak level 98.8 % Extraction speed 3.6 X Track quality 99.9 % Test CRC 8528DBD7 Copy CRC 8528DBD7 Track not present in AccurateRip database Copy OK
    Track 17
    Filename J:\Ongaku\Video Game\Blizzard\Diablo\[FLAC] [2001.10.21] The Music of Diablo 1996-2011 - Diablo 15 Year Anniversary\17 - Kurast.wav
    Peak level 84.2 % Extraction speed 4.6 X Track quality 100.0 % Test CRC E4242289 Copy CRC E4242289 Track not present in AccurateRip database Copy OK
    Track 18
    Filename J:\Ongaku\Video Game\Blizzard\Diablo\[FLAC] [2001.10.21] The Music of Diablo 1996-2011 - Diablo 15 Year Anniversary\18 - Lord (Diablo III Concept Music).wav
    Peak level 98.2 % Extraction speed 3.8 X Track quality 99.9 % Test CRC 9BF24923 Copy CRC 9BF24923 Track not present in AccurateRip database Copy OK
    Track 19
    Filename J:\Ongaku\Video Game\Blizzard\Diablo\[FLAC] [2001.10.21] The Music of Diablo 1996-2011 - Diablo 15 Year Anniversary\19 - Hydra (Diablo III Concept Music).wav
    Peak level 98.4 % Extraction speed 3.3 X Track quality 100.0 % Test CRC D2956E52 Copy CRC D2956E52 Track not present in AccurateRip database Copy OK
    None of the tracks are present in the AccurateRip database
    No errors occurred
    End of status report
    ---- CUETools DB Plugin V2.1.3
    [CTDB TOCID: 7JFsgJdGRA5vXnsb66eVvn58q0U-] found, Submit result: 7JFsgJdGRA5vXnsb66eVvn58q0U- has been confirmed[71512819] (4/4) Accurately ripped
    ==== Log checksum B1D557AC5DF53BD1E651CD52B93F3CA0D661A4AEEED6BBE235B8577EC25FCE80 ====
    Скачать .torrent

    Скачать торрент-файл бесплатно и на максимальной скорости!

    Как скачивать? · Что такое торрент? · Рейтинг и ограничения

    !ВНИМАНИЕ!
    Сайт не распространяет и не хранит электронные версии произведений, а занимается лишь лишь предоставлением доступа к создаваемому пользователями каталогу ссылок на торрент-файлы, которые содержат только списки хеш-сумм, убедительная просьба с жалобами обращаться напрямую к пользователю. Файлы для обмена на трекере предоставлены пользователями сайта, и администрация не несёт ответственности за их содержание. Просьба не заливать файлы, защищенные авторскими правами, а также файлы нелегального содержания!

    [Профиль] [ЛС]
    Показать сообщения:    
    Ответить на тему

    Текущее время: Сегодня, в 22:47

    Часовой пояс: GMT + 2



    Вы не можете начинать темы
    Вы не можете отвечать на сообщения
    Вы не можете редактировать свои сообщения
    Вы не можете удалять свои сообщения
    Вы не можете голосовать в опросах
    Вы не можете прикреплять файлы к сообщениям
    Вы не можете скачивать файлы