BitTorrentTracker PerecTracker.org
BitTorrentTracker PerecTracker.org
    
Регистрация  ·  Вход
 
 · 
Забыли пароль?

  • (Score) inFAMOUS: Second Son Soundtrack (by Brain, Marc Canham & Nathan Johnson) - 2014, FLAC (tracks+.cue), lossless

    Ответить на тему
     
    Автор Сообщение

    Columb

    Создавать темы 11-Май-2014 08:34

           

    [Цитировать]

    inFAMOUS: Second Son Soundtrack-Жанр: Score
    Композиторы: Brain, Marc Canham & Nathan Johnson
    Год выпуска: 2014
    Битрейт аудио: lossless
    Тип рипа: tracks+.cue
    Аудио кодек: FLAC (*.flac)
    Продолжительность: 00:01:14:10
    Источник: ffshrine [RadeonX1950]
    По vgmdb.net: http://vgmdb.net/album/44538
    Дополнительная информация: Релиз с измененными тэгами и индексной картой (*.cue),
    оригинальный лог (*.log) файл от программы EAC изменениям не подвергался.

    -

    Треклист


    01. Marc Canham - Second Son [4:30]
    02. Marc Canham - The Vandal King [2:32]
    03. Brain - Speed of Light [2:59]
    04. Marc Canham - Conflict Resolution [2:48]
    05. Nathan Johnson - Brothers [2:36]
    06. Brain - Double Crossed [3:35]
    07. Marc Canham - Henry Daughtry [3:38]
    08. Nathan Johnson - The Bio-Terrorist Threat [2:09]
    09. Marc Canham - The Call [2:02]
    10. Marc Canham - Cumulonimbus [3:45]
    11. Brain - Martial Law [3:31]
    12. Nathan Johnson - Freedom And Security [4:45]
    13. Nathan Johnson - Serial Tagger [3:25]
    14. Marc Canham - Brooke Augustine [2:20]
    15. Brain - Higher Elevation [3:51]
    16. Marc Canham - Abigail Walker [3:46]
    17. Nathan Johnson - Wavelength [2:57]
    18. Brain - Owning The Future [3:47]
    19. Marc Canham - Smoke And Mirrors [2:15]
    20. Brain - Alibi [4:11]
    21. Marc Canham - Enemy Territory [4:27]
    22. Nathan Johnson - Scraping The Sky [4:19]
    --

    *.log

    Exact Audio Copy V1.0 beta 3 from 29. August 2011
    EAC extraction logfile from 18. April 2014, 16:31
    Brain, Marc Canham & Nathan Johnson / inFAMOUS Second Son
    Used drive : Optiarc DVD RW AD-7243S Adapter: 0 ID: 0
    Read mode : SecureUtilize accurate stream : YesDefeat audio cache : YesMake use of C2 pointers : No
    Read offset correction : 48Overread into Lead-In and Lead-Out : NoFill up missing offset samples with silence : YesDelete leading and trailing silent blocks : NoNull samples used in CRC calculations : YesUsed interface : Native Win32 interface for Win NT & 2000Gap handling : Appended to previous track
    Used output format : User Defined EncoderSelected bitrate : 1024 kBit/sQuality : HighAdd ID3 tag : NoCommand line compressor : C:\Program Files (x86)\Exact Audio Copy\FLAC\FLAC.EXEAdditional command line options : -8 -V -T "ARTIST=%artist%" -T "TITLE=%title%" -T "ALBUM=%albumtitle%" -T "DATE=%year%" -T "TRACKNUMBER=%tracknr%" -T "GENRE=%genre%" -T "PERFORMER=%albuminterpret%" -T "COMPOSER=%composer%" %haslyrics%--tag-from-file=LYRICS="%lyricsfile%"%haslyrics% -T "ALBUMARTIST=%albumartist%" -T "DISCNUMBER=%cdnumber%" -T "TOTALDISCS=%totalcds%" -T "TOTALTRACKS=%numtracks%" -T "COMMENT=%comment%" %source% -o %dest%
    TOC of the extracted CD
    Track | Start | Length | Start sector | End sector --------------------------------------------------------- 1 | 0:00.00 | 4:29.74 | 0 | 20248 2 | 4:29.74 | 2:32.24 | 20249 | 31672 3 | 7:02.23 | 2:59.23 | 31673 | 45120 4 | 10:01.46 | 2:48.19 | 45121 | 57739 5 | 12:49.65 | 2:36.03 | 57740 | 69442 6 | 15:25.68 | 3:34.47 | 69443 | 85539 7 | 19:00.40 | 3:37.48 | 85540 | 101862 8 | 22:38.13 | 2:09.28 | 101863 | 111565 9 | 24:47.41 | 2:01.73 | 111566 | 120713 10 | 26:49.39 | 3:44.62 | 120714 | 137575 11 | 30:34.26 | 3:31.30 | 137576 | 153430 12 | 34:05.56 | 4:45.17 | 153431 | 174822 13 | 38:50.73 | 3:25.09 | 174823 | 190206 14 | 42:16.07 | 2:20.34 | 190207 | 200740 15 | 44:36.41 | 3:50.50 | 200741 | 218040 16 | 48:27.16 | 3:45.68 | 218041 | 234983 17 | 52:13.09 | 2:57.18 | 234984 | 248276 18 | 55:10.27 | 3:47.22 | 248277 | 265323 19 | 58:57.49 | 2:14.74 | 265324 | 275447 20 | 61:12.48 | 4:10.71 | 275448 | 294268 21 | 65:23.44 | 4:27.01 | 294269 | 314294 22 | 69:50.45 | 4:18.70 | 314295 | 333714
    Track 1
    Filename C:\01 Second Son.wav
    Pre-gap length 0:00:02.00
    Peak level 98.9 % Extraction speed 2.6 X Track quality 100.0 % Test CRC A1C7E354 Copy CRC A1C7E354 Track not present in AccurateRip database Copy OK
    Track 2
    Filename C:\02 The Vandal King.wav
    Peak level 98.6 % Extraction speed 2.6 X Track quality 100.0 % Test CRC F3412368 Copy CRC F3412368 Track not present in AccurateRip database Copy OK
    Track 3
    Filename C:\03 Speed of Light.wav
    Peak level 99.6 % Extraction speed 2.8 X Track quality 100.0 % Test CRC 995C66AE Copy CRC 995C66AE Track not present in AccurateRip database Copy OK
    Track 4
    Filename C:\04 Conflict Resolution.wav
    Peak level 99.4 % Extraction speed 2.9 X Track quality 100.0 % Test CRC 74CD48EA Copy CRC 74CD48EA Track not present in AccurateRip database Copy OK
    Track 5
    Filename C:\05 Brothers.wav
    Peak level 98.9 % Extraction speed 2.5 X Track quality 99.9 % Test CRC 297DD496 Copy CRC 297DD496 Track not present in AccurateRip database Copy OK
    Track 6
    Filename C:\06 Double Crossed.wav
    Peak level 100.0 % Extraction speed 3.4 X Track quality 100.0 % Test CRC 44A0AD1E Copy CRC 44A0AD1E Track not present in AccurateRip database Copy OK
    Track 7
    Filename C:\07 Henry Daughtry.wav
    Peak level 99.7 % Extraction speed 3.6 X Track quality 100.0 % Test CRC 1691CEDC Copy CRC 1691CEDC Track not present in AccurateRip database Copy OK
    Track 8
    Filename C:\08 The Bio-Terrorist Threat.wav
    Peak level 100.0 % Extraction speed 3.3 X Track quality 100.0 % Test CRC E9665A3B Copy CRC E9665A3B Track not present in AccurateRip database Copy OK
    Track 9
    Filename C:\09 The Call.wav
    Peak level 98.9 % Extraction speed 3.3 X Track quality 100.0 % Test CRC 0971189D Copy CRC 0971189D Track not present in AccurateRip database Copy OK
    Track 10
    Filename C:\10 Cumulonimbus.wav
    Peak level 99.3 % Extraction speed 3.9 X Track quality 100.0 % Test CRC 57EC0C43 Copy CRC 57EC0C43 Track not present in AccurateRip database Copy OK
    Track 11
    Filename C:\11 Martial Law.wav
    Peak level 99.3 % Extraction speed 4.0 X Track quality 100.0 % Test CRC 554C1F9E Copy CRC 554C1F9E Track not present in AccurateRip database Copy OK
    Track 12
    Filename C:\12 Freedom And Security.wav
    Peak level 100.0 % Extraction speed 4.3 X Track quality 100.0 % Test CRC 172CDF1C Copy CRC 172CDF1C Track not present in AccurateRip database Copy OK
    Track 13
    Filename C:\13 Serial Tagger.wav
    Peak level 100.0 % Extraction speed 4.3 X Track quality 100.0 % Test CRC 28D538BD Copy CRC 28D538BD Track not present in AccurateRip database Copy OK
    Track 14
    Filename C:\14 Brooke Augustine.wav
    Peak level 95.4 % Extraction speed 4.0 X Track quality 100.0 % Test CRC 845B7A52 Copy CRC 845B7A52 Track not present in AccurateRip database Copy OK
    Track 15
    Filename C:\15 Higher Elevation.wav
    Peak level 99.2 % Extraction speed 4.6 X Track quality 100.0 % Test CRC FADF9B76 Copy CRC FADF9B76 Track not present in AccurateRip database Copy OK
    Track 16
    Filename C:\16 Abigail Walker.wav
    Peak level 99.4 % Extraction speed 4.7 X Track quality 100.0 % Test CRC 2B276C21 Copy CRC 2B276C21 Track not present in AccurateRip database Copy OK
    Track 17
    Filename C:\17 Wavelength.wav
    Peak level 99.7 % Extraction speed 4.6 X Track quality 100.0 % Test CRC E0003CF2 Copy CRC E0003CF2 Track not present in AccurateRip database Copy OK
    Track 18
    Filename C:\18 Owning The Future.wav
    Peak level 100.0 % Extraction speed 4.9 X Track quality 100.0 % Test CRC CACFBD0B Copy CRC CACFBD0B Track not present in AccurateRip database Copy OK
    Track 19
    Filename C:\19 Smoke And Mirrors.wav
    Peak level 99.1 % Extraction speed 4.5 X Track quality 100.0 % Test CRC 7F12CDCE Copy CRC 7F12CDCE Track not present in AccurateRip database Copy OK
    Track 20
    Filename C:\20 Alibi.wav
    Peak level 99.8 % Extraction speed 5.2 X Track quality 100.0 % Test CRC D1ADE5B6 Copy CRC D1ADE5B6 Track not present in AccurateRip database Copy OK
    Track 21
    Filename C:\21 Enemy Territory.wav
    Peak level 98.9 % Extraction speed 2.5 X Track quality 99.8 % Test CRC C6E46CCD Copy CRC C6E46CCD Track not present in AccurateRip database Copy OK
    Track 22
    Filename C:\22 Scraping The Sky.wav
    Peak level 99.9 % Extraction speed 0.1 X Track quality 98.3 % Test CRC 255B46CE Copy CRC 255B46CE Track not present in AccurateRip database Copy OK
    None of the tracks are present in the AccurateRip database
    No errors occurred
    End of status report
    ==== Log checksum 7DA994EC57176D98632953F0AAB73DCCEAD12C546A00970C06CACFF9B9D88862 ====

    *.cue

    REM GENRE GameREM DATE 2014REM DISCID 38116116REM COMMENT "ExactAudioCopy v1.0b3"CATALOG 0669311310125PERFORMER "Various Artists"TITLE "inFAMOUS: Second Son Soundtrack"FILE "01. Second Son.wav" WAVE TRACK 01 AUDIO TITLE "Second Son" PERFORMER "Marc Canham" ISRC USGSS1400028 INDEX 01 00:00:00FILE "02. The Vandal King.wav" WAVE TRACK 02 AUDIO TITLE "The Vandal King" PERFORMER "Marc Canham" ISRC USGSS1400029 INDEX 01 00:00:00FILE "03. Speed of Light.wav" WAVE TRACK 03 AUDIO TITLE "Speed of Light" PERFORMER "Brain" ISRC USGSS1400030 INDEX 01 00:00:00FILE "04. Conflict Resolution.wav" WAVE TRACK 04 AUDIO TITLE "Conflict Resolution" PERFORMER "Marc Canham" ISRC USGSS1400031 INDEX 01 00:00:00FILE "05. Brothers.wav" WAVE TRACK 05 AUDIO TITLE "Brothers" PERFORMER "Nathan Johnson" ISRC USGSS1400032 INDEX 01 00:00:00FILE "06. Double Crossed.wav" WAVE TRACK 06 AUDIO TITLE "Double Crossed" PERFORMER "Brain" ISRC USGSS1400033 INDEX 01 00:00:00FILE "07. Henry Daughtry.wav" WAVE TRACK 07 AUDIO TITLE "Henry Daughtry" PERFORMER "Marc Canham" ISRC USGSS1400034 INDEX 01 00:00:00FILE "08. The Bio-Terrorist Threat.wav" WAVE TRACK 08 AUDIO TITLE "The Bio-Terrorist Threat" PERFORMER "Nathan Johnson" ISRC USGSS1400035 INDEX 01 00:00:00FILE "09. The Call.wav" WAVE TRACK 09 AUDIO TITLE "The Call" PERFORMER "Marc Canham" ISRC USGSS1400036 INDEX 01 00:00:00FILE "10. Cumulonimbus.wav" WAVE TRACK 10 AUDIO TITLE "Cumulonimbus" PERFORMER "Marc Canham" ISRC USGSS1400037 INDEX 01 00:00:00FILE "11. Martial Law.wav" WAVE TRACK 11 AUDIO TITLE "Martial Law" PERFORMER "Brain" ISRC USGSS1400038 INDEX 01 00:00:00FILE "12. Freedom And Security.wav" WAVE TRACK 12 AUDIO TITLE "Freedom And Security" PERFORMER "Nathan Johnson" ISRC USGSS1400039 INDEX 01 00:00:00FILE "13. Serial Tagger.wav" WAVE TRACK 13 AUDIO TITLE "Serial Tagger" PERFORMER "Nathan Johnson" ISRC USGSS1400040 INDEX 01 00:00:00FILE "14. Brooke Augustine.wav" WAVE TRACK 14 AUDIO TITLE "Brooke Augustine" PERFORMER "Marc Canham" ISRC USGSS1400041 INDEX 01 00:00:00FILE "15. Higher Elevation.wav" WAVE TRACK 15 AUDIO TITLE "Higher Elevation" PERFORMER "Brain" ISRC USGSS1400042 INDEX 01 00:00:00FILE "16. Abigail Walker.wav" WAVE TRACK 16 AUDIO TITLE "Abigail Walker" PERFORMER "Marc Canham" ISRC USGSS1400043 INDEX 01 00:00:00FILE "17. Wavelength.wav" WAVE TRACK 17 AUDIO TITLE "Wavelength" PERFORMER "Nathan Johnson" ISRC USGSS1400044 INDEX 01 00:00:00FILE "18. Owning The Future.wav" WAVE TRACK 18 AUDIO TITLE "Owning The Future" PERFORMER "Brain" ISRC USGSS1400045 INDEX 01 00:00:00FILE "19. Smoke And Mirrors.wav" WAVE TRACK 19 AUDIO TITLE "Smoke And Mirrors" PERFORMER "Marc Canham" ISRC USGSS1400046 INDEX 01 00:00:00FILE "20. Alibi.wav" WAVE TRACK 20 AUDIO TITLE "Alibi" PERFORMER "Brain" ISRC USGSS1400047 INDEX 01 00:00:00FILE "21. Enemy Territory.wav" WAVE TRACK 21 AUDIO TITLE "Enemy Territory" PERFORMER "Marc Canham" ISRC USGSS1400048 INDEX 01 00:00:00FILE "22. Scraping The Sky.wav" WAVE TRACK 22 AUDIO TITLE "Scraping The Sky" PERFORMER "Nathan Johnson" ISRC USGSS1400049 INDEX 01 00:00:00

    *.auCDtect

    -----------------------
    DON'T MODIFY THIS FILE
    -----------------------
    PERFORMER: auCDtect Task Manager, ver. 1.6.0 RC1 build 1.6.0.1Copyright (c) 2008-2010 y-soft. All rights reservedhttp://y-soft.org
    ANALYZER: auCDtect: CD records authenticity detector, version 0.8.2Copyright (c) 2004 Oleg Berngardt. All rights reserved.Copyright (c) 2004 Alexander Djourik. All rights reserved.
    FILE: 01. Second Son.flac Size: 22544379 Hash: 7CC91F39B0B7EA72CC4AE9C28BE0AB93 Accuracy: -m0 Conclusion: CDDA 100% Signature: AE426E0A959D19FCC51530FFE94D2322D68F1CF7FILE: 02. The Vandal King.flac Size: 14901242 Hash: 64FCF2971D32072F7A2B195317DDB9EA Accuracy: -m0 Conclusion: CDDA 100% Signature: BC42A18B0543F85F8535B296E1C80E49C699F0ACFILE: 03. Speed of Light.flac Size: 18045869 Hash: 9B7A00B5184A9B96F4931E41436D21A3 Accuracy: -m0 Conclusion: CDDA 100% Signature: 1ACC604E72886F3C96FB4819BCA0427625748EE5FILE: 04. Conflict Resolution.flac Size: 18264476 Hash: C6C5954D34C3BB9F84F587C3528EAAAB Accuracy: -m0 Conclusion: CDDA 100% Signature: 2B6CF4F890B5FBDD3E582D60D38DB80D7A454699FILE: 05. Brothers.flac Size: 14011876 Hash: 43AE85A84A112EB4AD6B129D0A5888DD Accuracy: -m0 Conclusion: CDDA 100% Signature: 218A79A8B1E4038316E6A82825F7AE620462A4DFFILE: 06. Double Crossed.flac Size: 22639320 Hash: C3DDFAC1EE11C07DE322E7CC69CD5BA1 Accuracy: -m0 Conclusion: CDDA 100% Signature: FB577109633C7E449B274DDA5A0E3CC7437D6F04FILE: 07. Henry Daughtry.flac Size: 21088270 Hash: 88DC12BDBCE0D3E331464C8C36D990A7 Accuracy: -m0 Conclusion: CDDA 100% Signature: C1475464E88CA8E16CED7BC078E19DF0E228DC27FILE: 08. The Bio-Terrorist Threat.flac Size: 14100445 Hash: CF83C19BFD0792B977AB19EFEDFCF86F Accuracy: -m0 Conclusion: CDDA 100% Signature: 7CFEEE297C23E58BF88241C955EFEC3927EBF83DFILE: 09. The Call.flac Size: 9367201 Hash: 9C01CC29BFC78F5D8941EEEDAE7158DE Accuracy: -m0 Conclusion: CDDA 100% Signature: B0C2AEFEF48C102987BE477C15F38AA23423A47DFILE: 10. Cumulonimbus.flac Size: 21427666 Hash: 37AF03ECB8B03259F96962DDF5E7B884 Accuracy: -m0 Conclusion: CDDA 100% Signature: 73302FFD13389CC133E4E98CA2444400B147ABB3FILE: 11. Martial Law.flac Size: 21372603 Hash: 82FBDF14EBC1631D44D0B690E7D75BDC Accuracy: -m0 Conclusion: CDDA 100% Signature: F22EE73453EFAF34304C8E5669A437EF3B138111FILE: 12. Freedom And Security.flac Size: 27531628 Hash: 063127CD6B18AE3C9D04DD2F731EF343 Accuracy: -m0 Conclusion: CDDA 100% Signature: 2FFDD07898D850CE71288F7E5EFCA96A8E3CB9F2FILE: 13. Serial Tagger.flac Size: 24911397 Hash: 07BE008B935E0DDEADB41E1B7FF6137C Accuracy: -m0 Conclusion: CDDA 100% Signature: 3C55A3BBDD8309F3D621F919A4B478E52B045A27FILE: 14. Brooke Augustine.flac Size: 12071609 Hash: 72459D0FF1A977EC1090292431A522BA Accuracy: -m0 Conclusion: CDDA 99% Signature: 2FE18630BCE4DBBC5EF83ABEB4F461564E051F6DFILE: 15. Higher Elevation.flac Size: 24490473 Hash: 7DC1FB006EAD8C6371B454E52D5AE4B4 Accuracy: -m0 Conclusion: CDDA 100% Signature: 7A39002A5F816DC7568BF3B9805B115F31D08663FILE: 16. Abigail Walker.flac Size: 23937134 Hash: 5AAD3DC942EABF99E2720E7D4D6392F4 Accuracy: -m0 Conclusion: CDDA 100% Signature: 0DFB9901CC816E4239CA0DF85613E5EECF2F3FE3FILE: 17. Wavelength.flac Size: 20728326 Hash: 6623041CB1CB1F8A9DC7CD5E57F7C3B5 Accuracy: -m0 Conclusion: CDDA 100% Signature: D86302BC0C82571CAB70BDE6E19DBF81BCDB571EFILE: 18. Owning The Future.flac Size: 25340211 Hash: A9BF51C71F6BDC9363BB2A72668410B7 Accuracy: -m0 Conclusion: CDDA 100% Signature: B971FA4BF51A9D8457FD61E6A790A42B608C0C2FFILE: 19. Smoke And Mirrors.flac Size: 13201147 Hash: D0880021450A84A0C39F43A698F4F3D2 Accuracy: -m0 Conclusion: CDDA 100% Signature: AF894FD4EADD50045D6FF876BB7E0051792099A1FILE: 20. Alibi.flac Size: 25680071 Hash: 7330614AF38AB6E9F1052F351D9B0828 Accuracy: -m0 Conclusion: CDDA 100% Signature: B4704C4A98C90EB9B1055A9067A40C7D8B50144CFILE: 21. Enemy Territory.flac Size: 22937187 Hash: 56C8A5136B2EF734FCBED8409A5BBFF1 Accuracy: -m0 Conclusion: CDDA 100% Signature: 698FAA06B965E3D2753CE73B031318CFEDAECB3DFILE: 22. Scraping The Sky.flac Size: 28211540 Hash: 681E6EA910B6CBD87076D2514FC81682 Accuracy: -m0 Conclusion: CDDA 100% Signature: 395602F6C641175C71AFE74A1F8EDA97E0D6CD2B

    *.accurip

    [CUETools log; Date: 23.04.2014 19:03:27; Version: 2.1.4][CTDB TOCID: YKeEwvOlPZhm8e6i7UE5blWAAMQ-] disk not present in database.[AccurateRip ID: 00383ab0-03879e70-38116116] disk not present in database.
    Track Peak [ CRC32 ] [W/O NULL] [ LOG ] -- 100,0 [D8B1A1FD] [F4AECB22] 01 98,9 [A1C7E354] [0438B789] CRC32 02 98,6 [F3412368] [2D4FD23F] CRC32 03 99,6 [995C66AE] [78AA4F4A] CRC32 04 99,4 [74CD48EA] [757A303F] CRC32 05 98,9 [297DD496] [5BD26DD3] CRC32 06 100,0 [44A0AD1E] [F8797A3C] CRC32 07 99,7 [1691CEDC] [C3E01324] CRC32 08 100,0 [E9665A3B] [7218D633] CRC32 09 98,9 [0971189D] [2FC4E025] CRC32 10 99,3 [57EC0C43] [B162BD21] CRC32 11 99,3 [554C1F9E] [0FB37AD6] CRC32 12 100,0 [172CDF1C] [64E24D40] CRC32 13 100,0 [28D538BD] [9B09BD9D] CRC32 14 95,4 [845B7A52] [C3443DF6] CRC32 15 99,2 [FADF9B76] [6EBE524B] CRC32 16 99,4 [2B276C21] [FADCCCB4] CRC32 17 99,7 [E0003CF2] [C6B08B0A] CRC32 18 100,0 [CACFBD0B] [A0CF9913] CRC32 19 99,1 [7F12CDCE] [7EE92D8F] CRC32 20 99,8 [D1ADE5B6] [F06A2090] CRC32 21 98,9 [C6E46CCD] [244E046D] CRC32 22 99,9 [255B46CE] [787C6CDA] CRC32
    -
    Скачать .torrent

    Скачать торрент-файл бесплатно и на максимальной скорости!

    Как скачивать? · Что такое торрент? · Рейтинг и ограничения

    !ВНИМАНИЕ!
    Сайт не распространяет и не хранит электронные версии произведений, а занимается лишь лишь предоставлением доступа к создаваемому пользователями каталогу ссылок на торрент-файлы, которые содержат только списки хеш-сумм, убедительная просьба с жалобами обращаться напрямую к пользователю. Файлы для обмена на трекере предоставлены пользователями сайта, и администрация не несёт ответственности за их содержание. Просьба не заливать файлы, защищенные авторскими правами, а также файлы нелегального содержания!

    [Профиль] [ЛС]
    Показать сообщения:    
    Ответить на тему

    Текущее время: Сегодня, в 04:16

    Часовой пояс: GMT + 2



    Вы не можете начинать темы
    Вы не можете отвечать на сообщения
    Вы не можете редактировать свои сообщения
    Вы не можете удалять свои сообщения
    Вы не можете голосовать в опросах
    Вы не можете прикреплять файлы к сообщениям
    Вы не можете скачивать файлы