BitTorrentTracker PerecTracker.org
BitTorrentTracker PerecTracker.org
    
Регистрация  ·  Вход
 
 · 
Забыли пароль?

  • (Arrangement / Instrumental, Harp) Harp Twins (Camille and Kennerly) - Harp Fantasy - 2013, FLAC (tracks+.cue) lossless

    Ответить на тему
     
    Автор Сообщение

    Columb

    Создавать темы 11-Май-2014 08:23

           

    [Цитировать]

    Harp Twins (Camille and Kennerly) / Harp Fantasy
    Жанр: Arrangement / Instrumental, Harp
    Год издания диска: 2013
    Страна: США
    Аудиокодек: FLAC
    Тип рипа: tracks+.cue
    Битрейт аудио: lossless
    Продолжительность: 38:43
    Источник: скачано с
    сайт-источник/ник/другое: What.CD (PhantomLink)
    Наличие сканов в содержимом раздачи: да
    Треклист:

    2013 - Harp Fantasy

    Продолжительность: 38:43-01. Game of Thrones Main Title (1:49)
    02. Star Trek Main Title (2:01)
    03. Misty Mountains (from "The Hobbit") (1:44)
    04. Mario: Rainbow Road / Dire Dire Docks (2:49)
    05. Doctor Who Theme (2:03)
    06. The Rains of Castamere (from "Game of Thrones") (2:46)
    07. Saint Seiya: Mime's Requiem / Abel's Harp (2:46)
    08. The Walking Dead Theme (1:39)
    09. Final Fantasy: Prelude / To Zanarkand (3:41)
    10. Silent Hill: Promise (Reprise) / Not Tomorrow (4:57)
    11. The Legend of Zelda: Ballad of the Goddess (1:45)
    12. Hedwig's Theme (from "Harry Potter") (2:37)
    13. Skyrim Main Theme (Dragonborn) (3:05)
    14. Lord of the Rings Medley (5:14)
    Camille and Kennerly's first video game, anime, movie and TV soundtrack compilation cover album explores their amazing journey across these genres using only 2 harps. Their skill as performers and arrangers is evident as they highlight the beauty and complexity of the original songs in a truly unique style. Every song was arranged and produced by Camille and Kennerly and recorded in 1 take in their living room (no splices, loops, overlays, or backtracks).
    Join Camille and Kennerly in their radical Duet Harp Revolution and be prepared for a Harp Fantasy!

    Лог создания рипа

    Exact Audio Copy V1.0 beta 3 from 29. August 2011
    EAC extraction logfile from 16. February 2014, 12:59
    Camille and Kennerly / Harp Fantasy
    Used drive : TSSTcorpCDDVDW SU-208DB Adapter: 0 ID: 0
    Read mode : SecureUtilize accurate stream : YesDefeat audio cache : YesMake use of C2 pointers : No
    Read offset correction : 48Overread into Lead-In and Lead-Out : NoFill up missing offset samples with silence : YesDelete leading and trailing silent blocks : NoNull samples used in CRC calculations : YesUsed interface : Native Win32 interface for Win NT & 2000Gap handling : Appended to previous track
    Used output format : User Defined EncoderSelected bitrate : 1024 kBit/sQuality : HighAdd ID3 tag : NoCommand line compressor : C:\Program Files (x86)\Exact Audio Copy\Flac\flac.exeAdditional command line options : -8 -V -T "ARTIST=%artist%" -T "TITLE=%title%" -T "ALBUM=%albumtitle%" -T "DATE=%year%" -T "TRACKNUMBER=%tracknr%" -T "GENRE=%genre%" -T "PERFORMER=%albuminterpret%" -T "COMPOSER=%composer%" %haslyrics%--tag-from-file=LYRICS="%lyricsfile%"%haslyrics% -T "ALBUMARTIST=%albumartist%" -T "DISCNUMBER=%cdnumber%" -T "TOTALDISCS=%totalcds%" -T "TOTALTRACKS=%numtracks%" -T "COMMENT=%comment%" %source% -o %dest%
    TOC of the extracted CD
    Track | Start | Length | Start sector | End sector --------------------------------------------------------- 1 | 0:00.00 | 1:49.37 | 0 | 8211 2 | 1:49.37 | 2:01.29 | 8212 | 17315 3 | 3:50.66 | 1:43.42 | 17316 | 25082 4 | 5:34.33 | 2:48.71 | 25083 | 37753 5 | 8:23.29 | 2:02.66 | 37754 | 46969 6 | 10:26.20 | 2:46.19 | 46970 | 59438 7 | 13:12.39 | 2:46.01 | 59439 | 71889 8 | 15:58.40 | 1:39.07 | 71890 | 79321 9 | 17:37.47 | 3:40.72 | 79322 | 95893 10 | 21:18.44 | 4:56.56 | 95894 | 118149 11 | 26:15.25 | 1:45.03 | 118150 | 126027 12 | 28:00.28 | 2:37.04 | 126028 | 137806 13 | 30:37.32 | 3:05.22 | 137807 | 151703 14 | 33:42.54 | 5:13.43 | 151704 | 175221
    Track 1
    Filename C:\Users\PhantomLink\Music\EAC Rips\Harp Fantasy\01 - Game of Thrones Main Title.wav
    Pre-gap length 0:00:02.00
    Peak level 98.7 % Extraction speed 2.3 X Track quality 100.0 % Test CRC 89E0E786 Copy CRC 89E0E786 Track not present in AccurateRip database Copy OK
    Track 2
    Filename C:\Users\PhantomLink\Music\EAC Rips\Harp Fantasy\02 - Star Trek Main Title.wav
    Pre-gap length 0:00:01.00
    Peak level 98.6 % Extraction speed 2.5 X Track quality 100.0 % Test CRC 0E77F5ED Copy CRC 0E77F5ED Track not present in AccurateRip database Copy OK
    Track 3
    Filename C:\Users\PhantomLink\Music\EAC Rips\Harp Fantasy\03 - Misty Mountains (from The Hobbit).wav
    Pre-gap length 0:00:01.00
    Peak level 97.1 % Extraction speed 1.8 X Track quality 99.8 % Test CRC 400644AB Copy CRC 400644AB Track not present in AccurateRip database Copy OK
    Track 4
    Filename C:\Users\PhantomLink\Music\EAC Rips\Harp Fantasy\04 - Mario- Rainbow Road , Dire Dire Docks.wav
    Pre-gap length 0:00:01.00
    Peak level 99.2 % Extraction speed 2.4 X Track quality 99.9 % Test CRC 9B94FD42 Copy CRC 9B94FD42 Track not present in AccurateRip database Copy OK
    Track 5
    Filename C:\Users\PhantomLink\Music\EAC Rips\Harp Fantasy\05 - Doctor Who Theme.wav
    Pre-gap length 0:00:01.00
    Peak level 98.5 % Extraction speed 3.0 X Track quality 100.0 % Test CRC 20523C28 Copy CRC 20523C28 Track not present in AccurateRip database Copy OK
    Track 6
    Filename C:\Users\PhantomLink\Music\EAC Rips\Harp Fantasy\06 - The Rains of Castamere (from ''Game of Thrones'').wav
    Pre-gap length 0:00:01.00
    Peak level 98.7 % Extraction speed 3.3 X Track quality 100.0 % Test CRC 1DC08F13 Copy CRC 1DC08F13 Track not present in AccurateRip database Copy OK
    Track 7
    Filename C:\Users\PhantomLink\Music\EAC Rips\Harp Fantasy\07 - Saint Seiya- Mime's Requiem , Abel's Harp.wav
    Pre-gap length 0:00:01.00
    Peak level 98.9 % Extraction speed 2.7 X Track quality 99.9 % Test CRC F963AC48 Copy CRC F963AC48 Track not present in AccurateRip database Copy OK
    Track 8
    Filename C:\Users\PhantomLink\Music\EAC Rips\Harp Fantasy\08 - The Walking Dead Theme.wav
    Pre-gap length 0:00:01.00
    Peak level 98.7 % Extraction speed 3.2 X Track quality 100.0 % Test CRC 365A5DE8 Copy CRC 365A5DE8 Track not present in AccurateRip database Copy OK
    Track 9
    Filename C:\Users\PhantomLink\Music\EAC Rips\Harp Fantasy\09 - Final Fantasy- Prelude , To Zanarkand.wav
    Pre-gap length 0:00:01.00
    Peak level 98.5 % Extraction speed 3.8 X Track quality 100.0 % Test CRC E4C6968A Copy CRC E4C6968A Track not present in AccurateRip database Copy OK
    Track 10
    Filename C:\Users\PhantomLink\Music\EAC Rips\Harp Fantasy\10 - Silent Hill- Promise (Reprise) , Not Tomorrow.wav
    Pre-gap length 0:00:01.00
    Peak level 98.5 % Extraction speed 4.3 X Track quality 100.0 % Test CRC 6C21D61B Copy CRC 6C21D61B Track not present in AccurateRip database Copy OK
    Track 11
    Filename C:\Users\PhantomLink\Music\EAC Rips\Harp Fantasy\11 - The Legend of Zelda- Ballad of the Goddess.wav
    Pre-gap length 0:00:01.00
    Peak level 98.7 % Extraction speed 3.8 X Track quality 100.0 % Test CRC 7D4AB30E Copy CRC 7D4AB30E Track not present in AccurateRip database Copy OK
    Track 12
    Filename C:\Users\PhantomLink\Music\EAC Rips\Harp Fantasy\12 - Hedwig's Theme (from ''Harry Potter'').wav
    Pre-gap length 0:00:01.00
    Peak level 98.7 % Extraction speed 3.2 X Track quality 99.9 % Test CRC 34415EAF Copy CRC 34415EAF Track not present in AccurateRip database Copy OK
    Track 13
    Filename C:\Users\PhantomLink\Music\EAC Rips\Harp Fantasy\13 - Skyrim Main Theme (Dragonborn).wav
    Pre-gap length 0:00:01.00
    Peak level 98.5 % Extraction speed 4.4 X Track quality 100.0 % Test CRC C843118B Copy CRC C843118B Track not present in AccurateRip database Copy OK
    Track 14
    Filename C:\Users\PhantomLink\Music\EAC Rips\Harp Fantasy\14 - Lord of the Rings Medley.wav
    Pre-gap length 0:00:01.00
    Peak level 98.6 % Extraction speed 4.9 X Track quality 100.0 % Test CRC 3F4570EC Copy CRC 3F4570EC Track not present in AccurateRip database Copy OK
    None of the tracks are present in the AccurateRip database
    No errors occurred
    End of status report
    ---- CUETools DB Plugin V2.1.3
    [CTDB TOCID: MMIhPn8oML6alh.5ikqX90w7tMA-] found, Submit result: database access error: The remote name could not be resolved: 'db.cuetools.net'[0adc513d] (1/1) Accurately ripped
    ==== Log checksum 7E2BFF789EEFBBDFBD58F4844A1B7BF9A1FF2D10000DBC410473C5AE46F2E458 ====

    Содержание индексной карты (.CUE)

    REM GENRE "Harp"REM DATE 2013REM DISCID B109200EREM COMMENT "ExactAudioCopy v1.0b3"PERFORMER "Camille and Kennerly"TITLE "Harp Fantasy"FILE "01 - Game of Thrones Main Title.wav" WAVE TRACK 01 AUDIO TITLE "Game of Thrones Main Title" PERFORMER "Camille and Kennerly" FLAGS DCP INDEX 01 00:00:00 TRACK 02 AUDIO TITLE "Star Trek Main Title" PERFORMER "Camille and Kennerly" FLAGS DCP INDEX 00 01:48:37FILE "02 - Star Trek Main Title.wav" WAVE INDEX 01 00:00:00 TRACK 03 AUDIO TITLE "Misty Mountains (from 'The Hobbit')" PERFORMER "Camille and Kennerly" FLAGS DCP INDEX 00 02:00:29FILE "03 - Misty Mountains (from The Hobbit).wav" WAVE INDEX 01 00:00:00 TRACK 04 AUDIO TITLE "Mario: Rainbow Road / Dire Dire Docks" PERFORMER "Camille and Kennerly" FLAGS DCP INDEX 00 01:42:42FILE "04 - Mario- Rainbow Road , Dire Dire Docks.wav" WAVE INDEX 01 00:00:00 TRACK 05 AUDIO TITLE "Doctor Who Theme" PERFORMER "Camille and Kennerly" FLAGS DCP INDEX 00 02:47:71FILE "05 - Doctor Who Theme.wav" WAVE INDEX 01 00:00:00 TRACK 06 AUDIO TITLE "The Rains of Castamere (from 'Game of Thrones')" PERFORMER "Camille and Kennerly" FLAGS DCP INDEX 00 02:01:66FILE "06 - The Rains of Castamere (from ''Game of Thrones'').wav" WAVE INDEX 01 00:00:00 TRACK 07 AUDIO TITLE "Saint Seiya: Mime's Requiem / Abel's Harp" PERFORMER "Camille and Kennerly" FLAGS DCP INDEX 00 02:45:19FILE "07 - Saint Seiya- Mime's Requiem , Abel's Harp.wav" WAVE INDEX 01 00:00:00 TRACK 08 AUDIO TITLE "The Walking Dead Theme" PERFORMER "Camille and Kennerly" FLAGS DCP INDEX 00 02:45:01FILE "08 - The Walking Dead Theme.wav" WAVE INDEX 01 00:00:00 TRACK 09 AUDIO TITLE "Final Fantasy: Prelude / To Zanarkand" PERFORMER "Camille and Kennerly" FLAGS DCP INDEX 00 01:38:07FILE "09 - Final Fantasy- Prelude , To Zanarkand.wav" WAVE INDEX 01 00:00:00 TRACK 10 AUDIO TITLE "Silent Hill: Promise (Reprise) / Not Tomorrow" PERFORMER "Camille and Kennerly" FLAGS DCP INDEX 00 03:39:72FILE "10 - Silent Hill- Promise (Reprise) , Not Tomorrow.wav" WAVE INDEX 01 00:00:00 TRACK 11 AUDIO TITLE "The Legend of Zelda: Ballad of the Goddess" PERFORMER "Camille and Kennerly" FLAGS DCP INDEX 00 04:55:56FILE "11 - The Legend of Zelda- Ballad of the Goddess.wav" WAVE INDEX 01 00:00:00 TRACK 12 AUDIO TITLE "Hedwig's Theme (from 'Harry Potter')" PERFORMER "Camille and Kennerly" FLAGS DCP INDEX 00 01:44:03FILE "12 - Hedwig's Theme (from ''Harry Potter'').wav" WAVE INDEX 01 00:00:00 TRACK 13 AUDIO TITLE "Skyrim Main Theme (Dragonborn)" PERFORMER "Camille and Kennerly" FLAGS DCP INDEX 00 02:36:04FILE "13 - Skyrim Main Theme (Dragonborn).wav" WAVE INDEX 01 00:00:00 TRACK 14 AUDIO TITLE "Lord of the Rings Medley" PERFORMER "Camille and Kennerly" FLAGS DCP INDEX 00 03:04:22FILE "14 - Lord of the Rings Medley.wav" WAVE INDEX 01 00:00:00
    Скачать .torrent

    Скачать торрент-файл бесплатно и на максимальной скорости!

    Как скачивать? · Что такое торрент? · Рейтинг и ограничения

    !ВНИМАНИЕ!
    Сайт не распространяет и не хранит электронные версии произведений, а занимается лишь лишь предоставлением доступа к создаваемому пользователями каталогу ссылок на торрент-файлы, которые содержат только списки хеш-сумм, убедительная просьба с жалобами обращаться напрямую к пользователю. Файлы для обмена на трекере предоставлены пользователями сайта, и администрация не несёт ответственности за их содержание. Просьба не заливать файлы, защищенные авторскими правами, а также файлы нелегального содержания!

    [Профиль] [ЛС]
    Показать сообщения:    
    Ответить на тему

    Текущее время: Сегодня, в 21:58

    Часовой пояс: GMT + 2



    Вы не можете начинать темы
    Вы не можете отвечать на сообщения
    Вы не можете редактировать свои сообщения
    Вы не можете удалять свои сообщения
    Вы не можете голосовать в опросах
    Вы не можете прикреплять файлы к сообщениям
    Вы не можете скачивать файлы