BitTorrentTracker PerecTracker.org
BitTorrentTracker PerecTracker.org
    
Регистрация  ·  Вход
 
 · 
Забыли пароль?

  • (Arrangement / Violin) Taylor Davis - Discography - 2012-2013, FLAC (tracks) lossless

    Ответить на тему
     
    Автор Сообщение

    Columb

    Создавать темы 11-Май-2014 08:18

           

    [Цитировать]

    Taylor Davis / Discography
    Количество релизов (альбомов / синглов / EP/ сборников): 3
    Жанр: Arrangement / Violin
    Год издания диска: 2012-2013
    Издатель (лейбл): Loudr
    Страна: США
    Аудиокодек: FLAC
    Тип рипа: tracks
    Битрейт аудио: lossless
    Продолжительность: 2:15:28
    Источник: скачано с
    сайт-источник/ник/другое: What.CD
    Наличие сканов в содержимом раздачи: да
    Треклист:

    2012 - Gaming Fantasy

    Продолжительность: 45:53-01. Skyrim Theme (4:06)
    02. Brothers (Fullmetal Alchemist) (4:08)
    03. Metal Gear Saga (4:32)
    04. Dearly Beloved (Kingdom Hearts) (3:03)
    05. Cid's Theme (Final Fantasy VII) (2:52)
    06. Time's Scar (Chrono Cross) (2:33)
    07. To Zanarkand (Final Fantasy X) (3:10)
    08. Sadness and Sorrow (Naruto) (2:45)
    09. Roses of May (Final Fantasy IX) (2:53)
    10. Ezio's Family (Assassin's Creed 2) (4:00)
    11. Frog's Theme (Chrono Trigger) (1:56)
    12. Zelda Medley (4:13)
    13. Chrono Trigger Theme (2:11)
    14. Hikari (Kingdom Hearts) (3:33)

    Лог создания рипа

    Exact Audio Copy V1.0 beta 3 from 29. August 2011
    EAC extraction logfile from 20. February 2013, 21:13
    Taylor Davis / Gaming Fantasy
    Used drive : MATSHITADVD-R UJ-898 Adapter: 1 ID: 0
    Read mode : SecureUtilize accurate stream : YesDefeat audio cache : YesMake use of C2 pointers : No
    Read offset correction : 102Overread into Lead-In and Lead-Out : NoFill up missing offset samples with silence : YesDelete leading and trailing silent blocks : NoNull samples used in CRC calculations : YesUsed interface : Native Win32 interface for Win NT & 2000Gap handling : Appended to previous track
    Used output format : User Defined EncoderSelected bitrate : 1024 kBit/sQuality : HighAdd ID3 tag : NoCommand line compressor : C:\Program Files (x86)\Exact Audio Copy\FLAC\flac.exeAdditional command line options : -8 -V -T "ARTIST=%artist%" -T "TITLE=%title%" -T "ALBUM=%albumtitle%" -T "DATE=%year%" -T "TRACKNUMBER=%tracknr%" -T "GENRE=%genre%" -T "PERFORMER=%albuminterpret%" -T "COMPOSER=%composer%" %haslyrics%--tag-from-file=LYRICS="%lyricsfile%"%haslyrics% -T "ALBUMARTIST=%albumartist%" -T "DISCNUMBER=%cdnumber%" -T "TOTALDISCS=%totalcds%" -T "TOTALTRACKS=%numtracks%" -T "COMMENT=%comment%" %source% -o %dest%
    TOC of the extracted CD
    Track | Start | Length | Start sector | End sector --------------------------------------------------------- 1 | 0:00.00 | 4:06.20 | 0 | 18469 2 | 4:06.20 | 4:07.65 | 18470 | 37059 3 | 8:14.10 | 4:32.12 | 37060 | 57471 4 | 12:46.22 | 3:02.56 | 57472 | 71177 5 | 15:49.03 | 2:51.46 | 71178 | 84048 6 | 18:40.49 | 2:32.46 | 84049 | 95494 7 | 21:13.20 | 3:09.38 | 95495 | 109707 8 | 24:22.58 | 2:45.00 | 109708 | 122082 9 | 27:07.58 | 2:52.44 | 122083 | 135026 10 | 30:00.27 | 4:00.00 | 135027 | 153026 11 | 34:00.27 | 1:56.00 | 153027 | 161726 12 | 35:56.27 | 4:12.49 | 161727 | 180675 13 | 40:09.01 | 2:11.37 | 180676 | 190537 14 | 42:20.38 | 3:32.67 | 190538 | 206504
    Track 1
    Filename C:\temp\eac\Taylor Davis - Gaming Fantasy (2012) [FLAC]\01 - Skyrim Theme.wav
    Pre-gap length 0:00:02.00
    Peak level 94.0 % Extraction speed 1.3 X Track quality 100.0 % Test CRC 8DAE1236 Copy CRC 8DAE1236 Track not present in AccurateRip database Copy OK
    Track 2
    Filename C:\temp\eac\Taylor Davis - Gaming Fantasy (2012) [FLAC]\02 - Brothers (Fullmetal Alchemist).wav
    Peak level 84.8 % Extraction speed 1.5 X Track quality 100.0 % Test CRC BABDC2FC Copy CRC BABDC2FC Track not present in AccurateRip database Copy OK
    Track 3
    Filename C:\temp\eac\Taylor Davis - Gaming Fantasy (2012) [FLAC]\03 - Metal Gear Saga.wav
    Peak level 98.1 % Extraction speed 1.7 X Track quality 100.0 % Test CRC 286F8B8D Copy CRC 286F8B8D Track not present in AccurateRip database Copy OK
    Track 4
    Filename C:\temp\eac\Taylor Davis - Gaming Fantasy (2012) [FLAC]\04 - Dearly Beloved (Kingdom Hearts).wav
    Peak level 46.3 % Extraction speed 1.7 X Track quality 100.0 % Test CRC 9BEEDA79 Copy CRC 9BEEDA79 Track not present in AccurateRip database Copy OK
    Track 5
    Filename C:\temp\eac\Taylor Davis - Gaming Fantasy (2012) [FLAC]\05 - Cid's Theme (Final Fantasy VII).wav
    Peak level 65.9 % Extraction speed 1.5 X Track quality 99.9 % Test CRC 33208926 Copy CRC 33208926 Track not present in AccurateRip database Copy OK
    Track 6
    Filename C:\temp\eac\Taylor Davis - Gaming Fantasy (2012) [FLAC]\06 - Time's Scar (Chrono Cross).wav
    Peak level 100.0 % Extraction speed 1.8 X Track quality 100.0 % Test CRC 9AD89F7E Copy CRC 9AD89F7E Track not present in AccurateRip database Copy OK
    Track 7
    Filename C:\temp\eac\Taylor Davis - Gaming Fantasy (2012) [FLAC]\07 - To Zanarkand (Final Fantasy X).wav
    Peak level 76.0 % Extraction speed 1.9 X Track quality 100.0 % Test CRC 00BEBEFD Copy CRC 00BEBEFD Track not present in AccurateRip database Copy OK
    Track 8
    Filename C:\temp\eac\Taylor Davis - Gaming Fantasy (2012) [FLAC]\08 - Sadness and Sorrow (Naruto).wav
    Peak level 57.0 % Extraction speed 1.6 X Track quality 99.9 % Test CRC 97E6D925 Copy CRC 97E6D925 Track not present in AccurateRip database Copy OK
    Track 9
    Filename C:\temp\eac\Taylor Davis - Gaming Fantasy (2012) [FLAC]\09 - Roses of May (Final Fantasy IX).wav
    Peak level 41.7 % Extraction speed 2.0 X Track quality 100.0 % Test CRC A661DF0B Copy CRC A661DF0B Track not present in AccurateRip database Copy OK
    Track 10
    Filename C:\temp\eac\Taylor Davis - Gaming Fantasy (2012) [FLAC]\10 - Ezio's Family (Assassin's Creed 2).wav
    Peak level 100.0 % Extraction speed 2.0 X Track quality 99.9 % Test CRC 71FA5028 Copy CRC 71FA5028 Track not present in AccurateRip database Copy OK
    Track 11
    Filename C:\temp\eac\Taylor Davis - Gaming Fantasy (2012) [FLAC]\11 - Frog's Theme (Chrono Trigger).wav
    Peak level 85.3 % Extraction speed 2.0 X Track quality 100.0 % Test CRC A733D4E6 Copy CRC A733D4E6 Track not present in AccurateRip database Copy OK
    Track 12
    Filename C:\temp\eac\Taylor Davis - Gaming Fantasy (2012) [FLAC]\12 - Zelda Medley.wav
    Peak level 95.5 % Extraction speed 2.2 X Track quality 99.9 % Test CRC 042AEFFD Copy CRC 042AEFFD Track not present in AccurateRip database Copy OK
    Track 13
    Filename C:\temp\eac\Taylor Davis - Gaming Fantasy (2012) [FLAC]\13 - Chrono Trigger Theme.wav
    Peak level 88.1 % Extraction speed 1.8 X Track quality 99.9 % Test CRC 7C6A0147 Copy CRC 7C6A0147 Track not present in AccurateRip database Copy OK
    Track 14
    Filename C:\temp\eac\Taylor Davis - Gaming Fantasy (2012) [FLAC]\14 - Hikari (Kingdom Hearts).wav
    Peak level 92.7 % Extraction speed 2.5 X Track quality 100.0 % Test CRC 2337465F Copy CRC 2337465F Track not present in AccurateRip database Copy OK
    None of the tracks are present in the AccurateRip database
    No errors occurred
    End of status report
    ---- CUETools DB Plugin V2.1.3
    [CTDB TOCID: iDvH7_UE4F.9PPme3hBf8k1fDR8-] found, Submit result: iDvH7_UE4F.9PPme3hBf8k1fDR8- has been confirmed[268222b8] (3/3) Accurately ripped
    ==== Log checksum 908F011744FFFEBB9D647086EFDBB225C31E5AC927EB9C8A49F92F8F672939CF ====

    Содержание индексной карты (.CUE)

    REM DATE 2012REM DISCID B50AC10EREM COMMENT "ExactAudioCopy v1.0b3"PERFORMER "Taylor Davis"TITLE "Gaming Fantasy"FILE "01. Skyrim Theme.wav" WAVE TRACK 01 AUDIO TITLE "Skyrim Theme" PERFORMER "Taylor Davis" FLAGS DCP INDEX 01 00:00:00FILE "02. Brothers (Fullmetal Alchemist).wav" WAVE TRACK 02 AUDIO TITLE "Brothers (Fullmetal Alchemist)" PERFORMER "Taylor Davis" FLAGS DCP INDEX 01 00:00:00FILE "03. Metal Gear Saga.wav" WAVE TRACK 03 AUDIO TITLE "Metal Gear Saga" PERFORMER "Taylor Davis" FLAGS DCP INDEX 01 00:00:00FILE "04. Dearly Beloved (Kingdom Hearts).wav" WAVE TRACK 04 AUDIO TITLE "Dearly Beloved (Kingdom Hearts)" PERFORMER "Taylor Davis" FLAGS DCP INDEX 01 00:00:00FILE "05. Cid's Theme (Final Fantasy VII).wav" WAVE TRACK 05 AUDIO TITLE "Cid's Theme (Final Fantasy VII)" PERFORMER "Taylor Davis" FLAGS DCP INDEX 01 00:00:00FILE "06. Time's Scar (Chrono Cross).wav" WAVE TRACK 06 AUDIO TITLE "Time's Scar (Chrono Cross)" PERFORMER "Taylor Davis" FLAGS DCP INDEX 01 00:00:00FILE "07. To Zanarkand (Final Fantasy X).wav" WAVE TRACK 07 AUDIO TITLE "To Zanarkand (Final Fantasy X)" PERFORMER "Taylor Davis" FLAGS DCP INDEX 01 00:00:00FILE "08. Sadness and Sorrow (Naruto).wav" WAVE TRACK 08 AUDIO TITLE "Sadness and Sorrow (Naruto)" PERFORMER "Taylor Davis" FLAGS DCP INDEX 01 00:00:00FILE "09. Roses of May (Final Fantasy IX).wav" WAVE TRACK 09 AUDIO TITLE "Roses of May (Final Fantasy IX)" PERFORMER "Taylor Davis" FLAGS DCP INDEX 01 00:00:00FILE "10. Ezio's Family (Assassin's Creed 2).wav" WAVE TRACK 10 AUDIO TITLE "Ezio's Family (Assassin's Creed 2)" PERFORMER "Taylor Davis" FLAGS DCP INDEX 01 00:00:00FILE "11. Frog's Theme (Chrono Trigger).wav" WAVE TRACK 11 AUDIO TITLE "Frog's Theme (Chrono Trigger)" PERFORMER "Taylor Davis" FLAGS DCP INDEX 01 00:00:00FILE "12. Zelda Medley.wav" WAVE TRACK 12 AUDIO TITLE "Zelda Medley" PERFORMER "Taylor Davis" FLAGS DCP INDEX 01 00:00:00FILE "13. Chrono Trigger Theme.wav" WAVE TRACK 13 AUDIO TITLE "Chrono Trigger Theme" PERFORMER "Taylor Davis" FLAGS DCP INDEX 01 00:00:00FILE "14. Hikari (Kingdom Hearts).wav" WAVE TRACK 14 AUDIO TITLE "Hikari (Kingdom Hearts)" PERFORMER "Taylor Davis" FLAGS DCP INDEX 01 00:00:00

    2012 - Game On: 2 Player Mode (Lara de Wit & Taylor Davis) (WEB)

    Продолжительность: 42:13-01. Assassin's Creed 3 Theme (2:54)
    02. Passion (Kingdom Hearts II) (3:52)
    03. Fairy Tail Theme (3:08)
    04. Aeris' Theme (Final Fantasy VII) (3:37)
    05. Guile's Theme (Street Fighter II) (2:47)
    06. Sons of Liberty (Metal Gear Solid 2) (2:29)
    07. Roxas' Theme (Kingdom Hearts II) (4:07)
    08. Chocobo Medley (3:28)
    09. To Galaxy (Halo 4) (2:48)
    10. An End, Once and for All (Mass Effect 3) (3:04)
    11. Pokemon Theme (3:09)
    12. Eyes on Me (Final Fantasy VIII) (4:45)
    13. Song of Storms (Zelda OoT) (2:07)

    Лог проверки качества

    -----------------------
    DON'T MODIFY THIS FILE
    -----------------------
    PERFORMER: auCDtect Task Manager, ver. 1.5.1RC6 build 1.5.1.7
    Copyright (c) 2008-2010 y-soft. All rights reserved
    http://y-soft.org
    ANALYZER: auCDtect: CD records authenticity detector, version 0.8.2
    Copyright (c) 2004 Oleg Berngardt. All rights reserved.
    Copyright (c) 2004 Alexander Djourik. All rights reserved.
    FILE: 01. Assassin's Creed 3 Theme.flac
    Size: 15993191 Hash: C2DCA489CD45B1311A94F15B280DDB5C Accuracy: -m0
    Conclusion: CDDA 100%
    Signature: 44557A20752CCED9F7B78F03979BA68D37C1C9E0
    FILE: 02. Passion (Kingdom Hearts II).flac
    Size: 15466525 Hash: BCB1A0395187BE698049EF882AEF47FC Accuracy: -m0
    Conclusion: MPEG 90%
    Signature: 24BC9E935E7F984FDF004E4DD34FE980DBFCDE20
    FILE: 03. Fairy Tail Theme.flac
    Size: 13617160 Hash: 5918FAE58909C7D3D5A1C6DDDD42B61C Accuracy: -m0
    Conclusion: MPEG 80%
    Signature: A2E31447040E016C6D333A1E046729A41B3FDFC0
    FILE: 04. Aeris' Theme (Final Fantasy VII).flac
    Size: 13797069 Hash: F4B7B1103B2039F84B214489B474E462 Accuracy: -m0
    Conclusion: MPEG 90%
    Signature: BBFDCE6A79275A0E5B0F6165FE9922BFCA36599F
    FILE: 05. Guile's Theme (Street Fighter II).flac
    Size: 12399801 Hash: 330B9ECFAAD423DAF55F580E1F9AF5FB Accuracy: -m0
    Conclusion: CDDA 42%
    Signature: 260532B485D0C01BEBAB481662CA3B0020A3155F
    FILE: 06. Sons of Liberty (Metal Gear Solid 2).flac
    Size: 10996406 Hash: B020388BE3C8B656140634326AD80A5C Accuracy: -m0
    Conclusion: CDDA 54%
    Signature: 7892AA1876B1973DF35B0E22BD22D0FFE8B0410C
    FILE: 07. Roxas' Theme (Kingdom Hearts II).flac
    Size: 16888691 Hash: 2990FA54CB51CC9FC57EE31C55366FCF Accuracy: -m0
    Conclusion: MPEG 91%
    Signature: B88D8AD311FB8DC76CA6DDBD5EB5FC307A16D931
    FILE: 08. Chocobo Medley.flac
    Size: 14589254 Hash: 477EF8BF0D746458C13885A345A4FBBA Accuracy: -m0
    Conclusion: CDDA 43%
    Signature: 0F9B36FED480056C206C3E95F8C6B31D365FBE6E
    FILE: 09. To Galaxy (Halo 4).flac
    Size: 15215290 Hash: 6DA9D9D48DAB3F4FEE01E4DB021F1B13 Accuracy: -m0
    Conclusion: CDDA 87%
    Signature: 16F34ACF3F3BE5521AA53177BC0886F30B5DCDE3
    FILE: 10. An End, Once and for All (Mass Effect 3).flac
    Size: 10640935 Hash: 9DB4541E4F7AB8560ED065B940C3EAB5 Accuracy: -m0
    Conclusion: MPEG 90%
    Signature: BEF2624DC3867B8E2F4706B15A7178FD19473CF9
    FILE: 11. Pokemon Theme.flac
    Size: 15033100 Hash: FFC214060BED52641261D5A4DFEFC8DB Accuracy: -m0
    Conclusion: MPEG 80%
    Signature: F550DF01ABD431A735DB25C15D020BFA3B393002
    FILE: 12. Eyes on Me (Final Fantasy VIII).flac
    Size: 19109719 Hash: F5EA40CF45E5B149A04023A69C4512A5 Accuracy: -m0
    Conclusion: MPEG 90%
    Signature: 1A636D640C250F065A0665BFA2C5D50CE4BBCF2E
    FILE: 13. Song of Storms (Zelda OoT).flac
    Size: 8020742 Hash: 9D35B5EBA64E9B1C087F47DD745A4CC9 Accuracy: -m0
    Conclusion: MPEG 92%
    Signature: 841920B12818D5692C1DF0D7070F792BD09385BD

    Скриншоты спектров частот

    2013 - Melodies of Hyrule: Music from The Legend of Zelda [LOUDR-1558] (WEB)

    Продолжительность: 47:21-01. Gerudo Valley (From "Ocarina of Time") (3:25)
    02. Bolero of Fire (From "Ocarina of Time") (2:48)
    03. Song of Time and Song of Storms (From "Ocarina of Time") (3:07)
    04. Dragon Roost Island (From "The Wind Waker") (3:04)
    05. Kokiri Forest (From "Ocarina of Time") (2:46)
    06. Great Fairy Fountain (2:52)
    07. Zelda's Lullaby (2:56)
    08. Midna's Lament (From "Twilight Princess") (2:44)
    09. Nocturne of Shadow (From "Ocarina of Time") (2:47)
    10. Serenade of Water (From "Ocarina of Time") (2:31)
    11. Sheik's Theme (From "Ocarina of Time") (2:51)
    12. Lon Lon Ranch (From "Ocarina of Time") (2:42)
    13. Dark World Theme (From "A Link to the Past") (2:51)
    14. Ballad of the Goddess (From "Skyward Sword") (2:51)
    15. Tal Tal Heights and The Legend of Zelda Main Theme (3:39)
    16. Lost Woods (From "Ocarina of Time") [Bonus Track] (3:27)

    Лог проверки качества

    -----------------------
    DON'T MODIFY THIS FILE
    -----------------------
    PERFORMER: auCDtect Task Manager, ver. 1.5.1RC6 build 1.5.1.7
    Copyright (c) 2008-2010 y-soft. All rights reserved
    http://y-soft.org
    ANALYZER: auCDtect: CD records authenticity detector, version 0.8.2
    Copyright (c) 2004 Oleg Berngardt. All rights reserved.
    Copyright (c) 2004 Alexander Djourik. All rights reserved.
    FILE: 01. Gerudo Valley (From Ocarina of Time).flac
    Size: 24180558 Hash: D57673280137EAEBB3024450020002F5 Accuracy: -m0
    Conclusion: CDDA 100%
    Signature: 5D1A4709B5159A46A5621C9AEA8DA9D5483A5491
    FILE: 02. Bolero of Fire (From Ocarina of Time).flac
    Size: 18787469 Hash: F91B8AEFD00D6FAA8B1E6B362929019A Accuracy: -m0
    Conclusion: CDDA 100%
    Signature: EC3B5E75CB805F3BADD77E38DC1B4FB821F1C503
    FILE: 03. Song of Time and Song of Storms (From Ocarina of Time).flac
    Size: 20673603 Hash: 8D6CE39876DFE3838445CE17EEC37DE4 Accuracy: -m0
    Conclusion: CDDA 100%
    Signature: 62490FE103318F731726E692614ED4DECD9C5762
    FILE: 04. Dragon Roost Island (From The Wind Waker).flac
    Size: 19970961 Hash: EC1E5BE9F8CFCC018A7747F8DA1D1E5C Accuracy: -m0
    Conclusion: CDDA 100%
    Signature: 46A6C4392E1B9EC9DEBF3969C34F1A19F3D822E7
    FILE: 05. Kokiri Forest (From Ocarina of Time).flac
    Size: 18106908 Hash: 6FDD0E1E9BF0CA6C64D76A4AB32DB30C Accuracy: -m0
    Conclusion: CDDA 100%
    Signature: BCAE735F3ECE59055CED8946037FC267FDAC868C
    FILE: 06. Great Fairy Fountain.flac
    Size: 16870323 Hash: 8408E56E795A21045D21FC93A46A6EA3 Accuracy: -m0
    Conclusion: CDDA 100%
    Signature: 4F15D04CD702696151E9C0E1A33242D3B1498C6B
    FILE: 07. Zelda's Lullaby.flac
    Size: 16455986 Hash: 67ACD44D3DE70C775A113A4F44A4F86B Accuracy: -m0
    Conclusion: CDDA 100%
    Signature: E97B3AFD706EBEC10BF275D8CB31202CF5BA3121
    FILE: 08. Midna's Lament (From Twilight Princess).flac
    Size: 15330808 Hash: FCA051C660693BA1E522BC68A139205B Accuracy: -m0
    Conclusion: CDDA 100%
    Signature: 3EE50F45AFA017E0B03D887CED3E021EDE7E517E
    FILE: 09. Nocturne of Shadow (From Ocarina of Time).flac
    Size: 16950077 Hash: 83D05A3FB73473DDAD9176EC32CAAC9E Accuracy: -m0
    Conclusion: CDDA 99%
    Signature: 4683A539758E620EBE99F3E76C6F6ABD1F41CAB8
    FILE: 10. Serenade of Water (From Ocarina of Time).flac
    Size: 14208449 Hash: 5CD85696F72930C4C4723986E09F4184 Accuracy: -m0
    Conclusion: CDDA 100%
    Signature: EDB14D0525A58C8B82B944DC5A11CC7A1D9D34B6
    FILE: 11. Sheik's Theme (From Ocarina of Time).flac
    Size: 16768926 Hash: BFD1BB6FB801A4C2815B22FA39C67CC8 Accuracy: -m0
    Conclusion: CDDA 100%
    Signature: F6A67E6F3AFCD2866E71EC2589ADE39D3D94AAC5
    FILE: 12. Lon Lon Ranch (From Ocarina of Time).flac
    Size: 16076786 Hash: A2823908E0536141E6BFC870A8496AB2 Accuracy: -m0
    Conclusion: CDDA 100%
    Signature: B5F17B12FC0537EBA461D22C94262D6B6AB20282
    FILE: 13. Dark World Theme (From A Link to the Past).flac
    Size: 19117319 Hash: BBD9E2C54B699C55FD6F317F6385B77D Accuracy: -m0
    Conclusion: CDDA 100%
    Signature: B162EBF377602FC4F7FD05104812CDB8ADC687F9
    FILE: 14. Ballad of the Goddess (From Skyward Sword).flac
    Size: 18776299 Hash: A364E69602005BA581D6C515BCC2D1A6 Accuracy: -m0
    Conclusion: CDDA 99%
    Signature: CFD9588DB0526779DC53A26928F94FF8F6847EEC
    FILE: 15. Tal Tal Heights and The Legend of Zelda Main Theme.flac
    Size: 25401150 Hash: 97F5AB0BE1AAE5C5759D52BEFB600BC4 Accuracy: -m0
    Conclusion: CDDA 100%
    Signature: 2620001E4F351B3B5FD52EB298924027134263E8
    FILE: 16. Lost Woods (From Ocarina of Time) [Bonus Track].flac
    Size: 25464963 Hash: 1007211BF5CE8FF7D48D939A45FD156B Accuracy: -m0
    Conclusion: CDDA 100%
    Signature: 4C2EB1AD172D0FAD51DFCE0EC3B1CE1EAA16A031
    -VGMdb-
    Скачать .torrent

    Скачать торрент-файл бесплатно и на максимальной скорости!

    Как скачивать? · Что такое торрент? · Рейтинг и ограничения

    !ВНИМАНИЕ!
    Сайт не распространяет и не хранит электронные версии произведений, а занимается лишь лишь предоставлением доступа к создаваемому пользователями каталогу ссылок на торрент-файлы, которые содержат только списки хеш-сумм, убедительная просьба с жалобами обращаться напрямую к пользователю. Файлы для обмена на трекере предоставлены пользователями сайта, и администрация не несёт ответственности за их содержание. Просьба не заливать файлы, защищенные авторскими правами, а также файлы нелегального содержания!

    [Профиль] [ЛС]
    Показать сообщения:    
    Ответить на тему

    Текущее время: Сегодня, в 16:30

    Часовой пояс: GMT + 2



    Вы не можете начинать темы
    Вы не можете отвечать на сообщения
    Вы не можете редактировать свои сообщения
    Вы не можете удалять свои сообщения
    Вы не можете голосовать в опросах
    Вы не можете прикреплять файлы к сообщениям
    Вы не можете скачивать файлы