BitTorrentTracker PerecTracker.org
BitTorrentTracker PerecTracker.org
    
Регистрация  ·  Вход
 
 · 
Забыли пароль?

  • (Soundtrack) DmC Devil May Cry Soundtrack Selection (featuring Noisia & Combichrist) - 2013, FLAC (tracks+.cue), lossless

    Ответить на тему
     
    Автор Сообщение

    Columb

    Создавать темы 11-Май-2014 08:11

           

    [Цитировать]

    DmC Devil May Cry Soundtrack Selection (featuring Noisia & Combichrist)
    Жанр: Soundtrack
    Композитор: Noisia, Combichrist
    Год выпуска диска: 2013
    Производитель диска: EU
    Издатель (лейбл): CAPCOM
    Аудиокодек: FLAC (*.flac)
    Тип рипа: tracks+.cue
    Битрейт аудио: lossless
    Продолжительность: 00:55:45
    Источник: сеть
    Наличие сканов в содержимом раздачи: нет
    Треклист:
    01. Noisia - Bob Barbas Fight (05:31)
    02. Noisia - Devil's Dalliance (05:37)
    03. Noisia - Hunter (04:45)
    04. Noisia - Lilith Fight (02:40)
    05. Noisia - Mundus Fight (04:37)
    06. Noisia - Succubus Fight (02:24)
    07. Noisia - The Trade (01:34)
    08. Combichrist - Sequential One (04:53)
    09. Combichrist - Clouds Of War (04:09)
    10. Combichrist - No Redemption (03:00)
    11. Combichrist - Media Riot (02:39)
    12. Combichrist - Pull The Pin (03:21)
    13. Combichrist - How Old Is Your Soul? (03:21)
    14. Combichrist - Zombie Fistfight (03:1)
    15. Combichrist - Buried Alive (03:38)

    Лог создания рипа

    Exact Audio Copy V1.0 beta 3 from 29. August 2011
    EAC extraction logfile from 22. June 2013, 2:05
    Noisia & Combichrist / DmC : Devil May Cry SOUNDTRACK SELECTION
    Used drive : PIONEER DVD-RW DVRKD08L Adapter: 1 ID: 0
    Read mode : SecureUtilize accurate stream : YesDefeat audio cache : YesMake use of C2 pointers : No
    Read offset correction : 48Overread into Lead-In and Lead-Out : NoFill up missing offset samples with silence : YesDelete leading and trailing silent blocks : NoNull samples used in CRC calculations : YesUsed interface : Native Win32 interface for Win NT & 2000Gap handling : Appended to previous track
    Used output format : User Defined EncoderSelected bitrate : 768 kBit/sQuality : HighAdd ID3 tag : NoCommand line compressor : C:\Program Files (x86)\Exact Audio Copy\FLAC\FLAC.EXEAdditional command line options : -6 -V -T "ARTIST=%artist%" -T "TITLE=%title%" -T "ALBUM=%albumtitle%" -T "DATE=%year%" -T "TRACKNUMBER=%tracknr%" -T "GENRE=%genre%" -T "COMMENT=%comment%" -T "BAND=%albuminterpret%" -T "ALBUMARTIST=%albuminterpret%" -T "COMPOSER=%composer%" %haslyrics%--tag-from-file=LYRICS="%lyricsfile%"%haslyrics% -T "DISCNUMBER=%cdnumber%" -T "TOTALDISCS=%totalcds%" -T "TOTALTRACKS=%numtracks%" %hascover%--picture="%coverfile%"%hascover% %source% -o %dest%
    TOC of the extracted CD
    Track | Start | Length | Start sector | End sector --------------------------------------------------------- 1 | 0:00.00 | 5:31.24 | 0 | 24848 2 | 5:31.24 | 5:37.03 | 24849 | 50126 3 | 11:08.27 | 4:45.20 | 50127 | 71521 4 | 15:53.47 | 2:40.43 | 71522 | 83564 5 | 18:34.15 | 4:37.37 | 83565 | 104376 6 | 23:11.52 | 2:24.42 | 104377 | 115218 7 | 25:36.19 | 1:34.00 | 115219 | 122268 8 | 27:10.19 | 4:53.66 | 122269 | 144309 9 | 32:04.10 | 4:09.27 | 144310 | 163011 10 | 36:13.37 | 3:00.00 | 163012 | 176511 11 | 39:13.37 | 2:39.71 | 176512 | 188507 12 | 41:53.33 | 3:21.31 | 188508 | 203613 13 | 45:14.64 | 3:21.11 | 203614 | 218699 14 | 48:36.00 | 3:31.25 | 218700 | 234549 15 | 52:07.25 | 3:38.20 | 234550 | 250919
    Track 1
    Filename C:\MiLO\EAC\DmC:Devil May Cry SOUNDTRACK SELECTION\01 Bob Barbas Fight.wav
    Pre-gap length 0:00:02.00
    Peak level 100.0 % Extraction speed 2.6 X Track quality 99.9 % Test CRC D12CE373 Copy CRC D12CE373 Track not present in AccurateRip database Copy OK
    Track 2
    Filename C:\MiLO\EAC\DmC:Devil May Cry SOUNDTRACK SELECTION\02 Devil's Dalliance.wav
    Peak level 100.0 % Extraction speed 3.3 X Track quality 100.0 % Test CRC A791F5D7 Copy CRC A791F5D7 Track not present in AccurateRip database Copy OK
    Track 3
    Filename C:\MiLO\EAC\DmC:Devil May Cry SOUNDTRACK SELECTION\03 Hunter.wav
    Peak level 100.0 % Extraction speed 3.6 X Track quality 100.0 % Test CRC CD1958A7 Copy CRC CD1958A7 Track not present in AccurateRip database Copy OK
    Track 4
    Filename C:\MiLO\EAC\DmC:Devil May Cry SOUNDTRACK SELECTION\04 Lilith Fight.wav
    Peak level 100.0 % Extraction speed 3.5 X Track quality 100.0 % Test CRC FBF6BBEC Copy CRC FBF6BBEC Track not present in AccurateRip database Copy OK
    Track 5
    Filename C:\MiLO\EAC\DmC:Devil May Cry SOUNDTRACK SELECTION\05 Mundus Fight.wav
    Peak level 100.0 % Extraction speed 4.0 X Track quality 100.0 % Test CRC 64CAD5BA Copy CRC 64CAD5BA Track not present in AccurateRip database Copy OK
    Track 6
    Filename C:\MiLO\EAC\DmC:Devil May Cry SOUNDTRACK SELECTION\06 Succubus Fight.wav
    Peak level 100.0 % Extraction speed 3.7 X Track quality 100.0 % Test CRC F947ABD9 Copy CRC F947ABD9 Track not present in AccurateRip database Copy OK
    Track 7
    Filename C:\MiLO\EAC\DmC:Devil May Cry SOUNDTRACK SELECTION\07 The Trade.wav
    Peak level 99.7 % Extraction speed 3.4 X Track quality 100.0 % Test CRC 375AAB83 Copy CRC 375AAB83 Track not present in AccurateRip database Copy OK
    Track 8
    Filename C:\MiLO\EAC\DmC:Devil May Cry SOUNDTRACK SELECTION\08 Sequential One.wav
    Peak level 97.6 % Extraction speed 4.4 X Track quality 100.0 % Test CRC 24E2EEFA Copy CRC 24E2EEFA Track not present in AccurateRip database Copy OK
    Track 9
    Filename C:\MiLO\EAC\DmC:Devil May Cry SOUNDTRACK SELECTION\09 Clouds Of War.wav
    Peak level 100.0 % Extraction speed 3.9 X Track quality 99.9 % Test CRC 31D044F7 Copy CRC 31D044F7 Track not present in AccurateRip database Copy OK
    Track 10
    Filename C:\MiLO\EAC\DmC:Devil May Cry SOUNDTRACK SELECTION\10 No Redemption.wav
    Peak level 97.5 % Extraction speed 4.4 X Track quality 100.0 % Test CRC A6159F33 Copy CRC A6159F33 Track not present in AccurateRip database Copy OK
    Track 11
    Filename C:\MiLO\EAC\DmC:Devil May Cry SOUNDTRACK SELECTION\11 Media Riot.wav
    Peak level 96.6 % Extraction speed 4.4 X Track quality 100.0 % Test CRC DAA0D159 Copy CRC DAA0D159 Track not present in AccurateRip database Copy OK
    Track 12
    Filename C:\MiLO\EAC\DmC:Devil May Cry SOUNDTRACK SELECTION\12 Pull The Pin.wav
    Peak level 100.0 % Extraction speed 4.7 X Track quality 100.0 % Test CRC 17ECC874 Copy CRC 17ECC874 Track not present in AccurateRip database Copy OK
    Track 13
    Filename C:\MiLO\EAC\DmC:Devil May Cry SOUNDTRACK SELECTION\13 How Old Is Your Soul?.wav
    Peak level 100.0 % Extraction speed 4.1 X Track quality 99.9 % Test CRC A84674EB Copy CRC A84674EB Track not present in AccurateRip database Copy OK
    Track 14
    Filename C:\MiLO\EAC\DmC:Devil May Cry SOUNDTRACK SELECTION\14 Zombie Fistfight.wav
    Peak level 97.9 % Extraction speed 4.7 X Track quality 100.0 % Test CRC C9F8B0E5 Copy CRC C9F8B0E5 Track not present in AccurateRip database Copy OK
    Track 15
    Filename C:\MiLO\EAC\DmC:Devil May Cry SOUNDTRACK SELECTION\15 Buried Alive.wav
    Peak level 100.0 % Extraction speed 4.8 X Track quality 100.0 % Test CRC 78D65817 Copy CRC 78D65817 Track not present in AccurateRip database Copy OK
    None of the tracks are present in the AccurateRip database
    No errors occurred
    End of status report
    ==== Log checksum 69064BEC5FC8A2FA49D7DAB7F23466202E043DD184A2C984DE91F43832BBBDFE ====

    Содержание индексной карты *.cue

    REM GENRE "Original Soundtrack"REM DATE 2013REM DISCID D10D110FREM COMMENT "ExactAudioCopy v1.0b3"PERFORMER "Noisia & Combichrist"TITLE "DmC Devil May Cry Soundtrack Selection"FILE "01. Noisia - Bob Barbas Fight.wav" WAVE TRACK 01 AUDIO TITLE "Bob Barbas Fight" PERFORMER "Noisia" INDEX 01 00:00:00FILE "02. Noisia - Devil's Dalliance.wav" WAVE TRACK 02 AUDIO TITLE "Devil's Dalliance" PERFORMER "Noisia" INDEX 01 00:00:00FILE "03. Noisia - Hunter.wav" WAVE TRACK 03 AUDIO TITLE "Hunter" PERFORMER "Noisia" INDEX 01 00:00:00FILE "04. Noisia - Lilith Fight.wav" WAVE TRACK 04 AUDIO TITLE "Lilith Fight" PERFORMER "Noisia" INDEX 01 00:00:00FILE "05. Noisia - Mundus Fight.wav" WAVE TRACK 05 AUDIO TITLE "Mundus Fight" PERFORMER "Noisia" INDEX 01 00:00:00FILE "06. Noisia - Succubus Fight.wav" WAVE TRACK 06 AUDIO TITLE "Succubus Fight" PERFORMER "Noisia" INDEX 01 00:00:00FILE "07. Noisia - The Trade.wav" WAVE TRACK 07 AUDIO TITLE "The Trade" PERFORMER "Noisia" INDEX 01 00:00:00FILE "08. Combichrist - Sequential One.wav" WAVE TRACK 08 AUDIO TITLE "Sequential One" PERFORMER "Combichrist" INDEX 01 00:00:00FILE "09. Combichrist - Clouds Of War.wav" WAVE TRACK 09 AUDIO TITLE "Clouds Of War" PERFORMER "Combichrist" INDEX 01 00:00:00FILE "10. Combichrist - No Redemption.wav" WAVE TRACK 10 AUDIO TITLE "No Redemption" PERFORMER "Combichrist" INDEX 01 00:00:00FILE "11. Combichrist - Media Riot.wav" WAVE TRACK 11 AUDIO TITLE "Media Riot" PERFORMER "Combichrist" INDEX 01 00:00:00FILE "12. Combichrist - Pull The Pin.wav" WAVE TRACK 12 AUDIO TITLE "Pull The Pin" PERFORMER "Combichrist" INDEX 01 00:00:00FILE "13. Combichrist - How Old Is Your Soul.wav" WAVE TRACK 13 AUDIO TITLE "How Old Is Your Soul?" PERFORMER "Combichrist" INDEX 01 00:00:00FILE "14. Combichrist - Zombie Fistfight.wav" WAVE TRACK 14 AUDIO TITLE "Zombie Fistfight" PERFORMER "Combichrist" INDEX 01 00:00:00FILE "15. Combichrist - Buried Alive.wav" WAVE TRACK 15 AUDIO TITLE "Buried Alive" PERFORMER "Combichrist" INDEX 01 00:00:00
    Доп. информация: DmC Devil May Cry Soundtrack Selection is the soundtrack for the game DmC Devil May Cry published by Capcom. The tracks are composed by Noisia and Andy LaPlegua and performed by Noisia (tracks 1 to 7) and Combichrist (tracks 8 to 15).
    It was released on January 15th, 2013, coinciding with the game's. However, the soundtrack is not available for commercial sale, instead being a pre-order bonus for the game's Premium or Special edition from the Capcom Europe store
    Скачать .torrent

    Скачать торрент-файл бесплатно и на максимальной скорости!

    Как скачивать? · Что такое торрент? · Рейтинг и ограничения

    !ВНИМАНИЕ!
    Сайт не распространяет и не хранит электронные версии произведений, а занимается лишь лишь предоставлением доступа к создаваемому пользователями каталогу ссылок на торрент-файлы, которые содержат только списки хеш-сумм, убедительная просьба с жалобами обращаться напрямую к пользователю. Файлы для обмена на трекере предоставлены пользователями сайта, и администрация не несёт ответственности за их содержание. Просьба не заливать файлы, защищенные авторскими правами, а также файлы нелегального содержания!

    [Профиль] [ЛС]
    Показать сообщения:    
    Ответить на тему

    Текущее время: Сегодня, в 10:48

    Часовой пояс: GMT + 2



    Вы не можете начинать темы
    Вы не можете отвечать на сообщения
    Вы не можете редактировать свои сообщения
    Вы не можете удалять свои сообщения
    Вы не можете голосовать в опросах
    Вы не можете прикреплять файлы к сообщениям
    Вы не можете скачивать файлы