BitTorrentTracker PerecTracker.org
BitTorrentTracker PerecTracker.org
    
Регистрация  ·  Вход
 
 · 
Забыли пароль?

  • Всё, что вы хотели знать о сексе и налогах / Spies and Glistrup (Кристоффер Боэ / Christoffer Boe) [2013, Дания, драма, биография, HDRip] MVO (Точка Zрения)

    Ответить на тему
     
    Автор Сообщение

    Columb

    Создавать темы 28-Апр-2014 11:02

           

    [Цитировать]

    Всё, что вы хотели знать о сексе и налогах / Spies and Glistrup
    Страна: Дания
    Жанр: драма, биография
    Год выпуска: 2013
    Продолжительность: 01:55:08
    Перевод: Любительский (многоголосый закадровый) Точка Zрения
    Cубтитры: нет
    Оригинальная аудиодорожка: нет
    Режиссер: Кристоффер Боэ / Christoffer Boe
    В ролях: Йохан Филип Асбек, Николас Бро, Еспер Кристенсен, Якоб Хёйлев Ёргенсон, Каспер Лайснер, Трине Паллесен, Fie Aarestrup, Anna Agerbak, Ditte Arnth, Linda Avanu
    Описание: Первый - магнат-мультимиллиардер, второй - юрист, способный найти лазейку в любом контракте и правовом кодексе. Спис - плейбой, гедонист, либертин, принимавший журналистов в окружении обнаженных юниц и способный зайти в клетку с разъяренной гориллой без штанов, с эрегированным членом наперевес. Глиструп - одутловатый зануда, равнодушный к вечеринкам и всю долгую жизнь хранивший верность жене. С его помощью в 1965-м году Спис провернул грандиозную авантюрную сделку, став единственным владельцем турагентства и авиакомпании, демократизировавшей перелеты. Эта сделка положила начало и многолетней дружбе двух полярных созданий, чьи выходки провоцировали общество на протяжении трех десятилетий.
    Доп. информация:

    Sample:
    Качество видео: HDRip
    Формат видео: AVI
    Видео: Xvid 688x288 24fps 765 Kbps
    Аудио: MP3 48000Hz stereo 128kbps

    MediaInfo

    General
    Complete name : D:\Spies.Glistrup.2013.HDRip.avi
    Format : AVI
    Format/Info : Audio Video Interleave
    File size : 746 MiB
    Duration : 1h 55mn
    Overall bit rate : 906 Kbps
    Writing application : Lavf54.63.104
    Video
    ID : 0
    Format : xvid
    Codec ID : xvid
    Duration : 1h 55mn
    Bit rate : 765 Kbps
    Width : 688 pixels
    Height : 288 pixels
    Display aspect ratio : 2.40:1
    Frame rate : 24.000 fps
    Bits/(Pixel*Frame) : 0.161
    Stream size : 630 MiB (84%)
    Audio
    ID : 1
    Format : MPEG Audio
    Format version : Version 1
    Format profile : Layer 3
    Mode : Joint stereo
    Mode extension : MS Stereo
    Codec ID : 55
    Codec ID/Hint : MP3
    Duration : 1h 55mn
    Bit rate mode : Constant
    Bit rate : 128 Kbps
    Channel count : 2 channels
    Sampling rate : 48.0 KHz
    Compression mode : Lossy
    Stream size : 105 MiB (14%)
    Alignment : Aligned on interleaves
    Interleave, duration : 24 ms (0.58 video frame)

    Скриншот c названием фильма

    Скриншоты

    Скачать .torrent

    Скачать торрент-файл бесплатно и на максимальной скорости!

    Как скачивать? · Что такое торрент? · Рейтинг и ограничения

    !ВНИМАНИЕ!
    Сайт не распространяет и не хранит электронные версии произведений, а занимается лишь лишь предоставлением доступа к создаваемому пользователями каталогу ссылок на торрент-файлы, которые содержат только списки хеш-сумм, убедительная просьба с жалобами обращаться напрямую к пользователю. Файлы для обмена на трекере предоставлены пользователями сайта, и администрация не несёт ответственности за их содержание. Просьба не заливать файлы, защищенные авторскими правами, а также файлы нелегального содержания!

    [Профиль] [ЛС]
    Показать сообщения:    
    Ответить на тему

    Текущее время: Сегодня, в 11:03

    Часовой пояс: GMT + 2



    Вы не можете начинать темы
    Вы не можете отвечать на сообщения
    Вы не можете редактировать свои сообщения
    Вы не можете удалять свои сообщения
    Вы не можете голосовать в опросах
    Вы не можете прикреплять файлы к сообщениям
    Вы не можете скачивать файлы