BitTorrentTracker PerecTracker.org
BitTorrentTracker PerecTracker.org
    
Регистрация  ·  Вход
 
 · 
Забыли пароль?

  • Где угодно / Everywhen (Йерен Брэян Хердал / Jarand Breian Herdal) [2013, Норвегия, фантастика, триллер, DVDRip] VO (R.A.I.M) + Original Eng

    Ответить на тему
     
    Автор Сообщение

    Columb

    Создавать темы 28-Апр-2014 10:58

           

    [Цитировать]

    Где угодно / Everywhen
    Страна: Норвегия
    Жанр: фантастика, триллер
    Год выпуска: 2013
    Продолжительность: 01:02:19
    Перевод: Одноголосый закадровый R.A.I.M по субтитрам Михаил Васильев (MixBas)
    Cубтитры: нет
    Оригинальная аудиодорожка: английский
    Режиссер: Йерен Брэян Хердал / Jarand Breian Herdal
    В ролях: Харальд Эвьен Фурухолмен, Хьюго Херрман, Филлип Ларсен, Рубен Лефгрен, Эллен Зиннев, Дик Тоннесен, Дик Уиттингтон, Джозеф Уиттингтон
    Описание: В не очень отдаленном будущем телепортация стала привычным делом. Миллионы людей пользуются телепортами, как мы сегодня пользуемся автобусами. Но однажды система дает сбой, и телепорты начинают отправлять ничего не подозревающих граждан в параллельные миры...
    Доп. информация:


    Sample
    Качество видео: DVDRip
    Формат видео: AVI
    Видео: DivX 5 720x304 25fps 2 222 Kbps
    Аудио: Dolby AC3 48000Hz 6ch 448kbps - Русский
    Аудио 2: Dolby AC3 48000Hz 6ch 448kbps - Английский

    MediaInfo

    General
    Complete name : C:\Torrent\Everywhen.DVDRip.2013.avi
    Format : AVI
    Format/Info : Audio Video Interleave
    File size : 1.36 GiB
    Duration : 1h 2mn
    Overall bit rate : 3 132 Kbps
    Movie name : Everywhen.DVDRip.1400MB.GOLIAF.TV
    Director : -=REGIS1975=-Everywhen-=GOLIAF.TV=-
    Genre : Fantasy
    Writing application : VirtualDubMod 1.5.4.1 (build 2066/release)
    Writing library : VirtualDubMod build 2066/release
    Original source form/Name : Movie
    Comment : Rus.L1.[R.A.I.M]
    Video
    ID : 0
    Format : MPEG-4 Visual
    Format profile : Simple@L1
    Format settings, BVOP : No
    Format settings, QPel : No
    Format settings, GMC : No warppoints
    Format settings, Matrix : Default (H.263)
    Codec ID : DX50
    Codec ID/Hint : DivX 5
    Duration : 1h 2mn
    Bit rate : 2 222 Kbps
    Width : 720 pixels
    Height : 304 pixels
    Display aspect ratio : 2.35:1
    Frame rate : 25.000 fps
    Color space : YUV
    Chroma subsampling : 4:2:0
    Bit depth : 8 bits
    Scan type : Progressive
    Compression mode : Lossy
    Bits/(Pixel*Frame) : 0.406
    Stream size : 990 MiB (71%)
    Writing library : Lavc51.40.4
    Audio #1
    ID : 1
    Format : AC-3
    Format/Info : Audio Coding 3
    Mode extension : CM (complete main)
    Format settings, Endianness : Big
    Codec ID : 2000
    Duration : 1h 2mn
    Bit rate mode : Constant
    Bit rate : 448 Kbps
    Channel count : 6 channels
    Channel positions : Front: L C R, Side: L R, LFE
    Sampling rate : 48.0 KHz
    Bit depth : 16 bits
    Compression mode : Lossy
    Stream size : 200 MiB (14%)
    Alignment : Aligned on interleaves
    Interleave, duration : 40 ms (1.00 video frame)
    Interleave, preload duration : 512 ms
    Audio #2
    ID : 2
    Format : AC-3
    Format/Info : Audio Coding 3
    Mode extension : CM (complete main)
    Format settings, Endianness : Big
    Codec ID : 2000
    Duration : 1h 2mn
    Bit rate mode : Constant
    Bit rate : 448 Kbps
    Channel count : 6 channels
    Channel positions : Front: L C R, Side: L R, LFE
    Sampling rate : 48.0 KHz
    Bit depth : 16 bits
    Compression mode : Lossy
    Stream size : 200 MiB (14%)
    Alignment : Aligned on interleaves
    Interleave, duration : 40 ms (1.00 video frame)
    Interleave, preload duration : 512 ms

    Скриншот c названием фильма

    Скриншоты

    Скачать .torrent

    Скачать торрент-файл бесплатно и на максимальной скорости!

    Как скачивать? · Что такое торрент? · Рейтинг и ограничения

    !ВНИМАНИЕ!
    Сайт не распространяет и не хранит электронные версии произведений, а занимается лишь лишь предоставлением доступа к создаваемому пользователями каталогу ссылок на торрент-файлы, которые содержат только списки хеш-сумм, убедительная просьба с жалобами обращаться напрямую к пользователю. Файлы для обмена на трекере предоставлены пользователями сайта, и администрация не несёт ответственности за их содержание. Просьба не заливать файлы, защищенные авторскими правами, а также файлы нелегального содержания!

    [Профиль] [ЛС]
    Показать сообщения:    
    Ответить на тему

    Текущее время: Сегодня, в 15:44

    Часовой пояс: GMT + 2



    Вы не можете начинать темы
    Вы не можете отвечать на сообщения
    Вы не можете редактировать свои сообщения
    Вы не можете удалять свои сообщения
    Вы не можете голосовать в опросах
    Вы не можете прикреплять файлы к сообщениям
    Вы не можете скачивать файлы