BitTorrentTracker PerecTracker.org
BitTorrentTracker PerecTracker.org
    
Регистрация  ·  Вход
 
 · 
Забыли пароль?

  • Игра Эндера / Ender's Game (Гэвин Худ / Gavin Hood) [2013, США, Фантастика, боевик, приключения, BDRip-AVC] AVO (Гаврилов) + Sub Rus, Eng

    Ответить на тему
     
    Автор Сообщение

    Columb

    Создавать темы 28-Апр-2014 10:56

           

    [Цитировать]

    Игра ЭндераEnder's Game«Это не игра»
    Страна: США
    Жанр: Фантастика, боевик, приключения
    Год выпуска: 2013
    Продолжительность: 01:53:48
    Перевод: Авторский (одноголосый закадровый) [Гаврилов]
    Cубтитры: русские,английские
    Оригинальная аудиодорожка:нет
    Режиссер: Гэвин Худ / Gavin Hood
    В ролях: Эйса Баттерфилд, Харрисон Форд, Бен Кингсли, Виола Дэвис, Хейли Стайнфелд, Эбигейл Бреслин, Арамис Найт, Сурадж Партха, Мойзес Ариас, Кайлин Рамбо
    Описание: Действие ленты происходит в 2136 году. Будущее Земли не так радужно, как представлялось оно людям. Инопланетные расы начали постоянно вторгаться на людскую, стараясь уничтожить всё человечество. Элитная школа подготавливает самых крепких ребят для борьбы с инопланетянами. Главный герой ленты один из учеников подросток Эндрю Виггин, которого будет готовить полковник Хайрам Графф и полководец Мэзер Ракхейм изменит судьбу всего человечества. И мир ждет с нетерпением выхода этой кинокартины, ведь в своей основе она содержит одноименный рассказ от Орсона Скотта Карда, у которого уже есть многомиллионная аудитория почитателей. Станет ли кинокартина такая же уникальная и непревзойденная как книга, судить лишь зрителю…
    Доп. информация:

    Автор рипа: potroks
    Качество видео: BDRip-AVC |Игра Эндера / Ender's Game (2013) 1080p BD-Remux|
    Формат видео: MKV
    Видео: х.264, 1032x430 (2,40:1), 23,976 fps, 1385 Кbps, 0.130 bit/pixel
    Аудио: 48 kHz, AC3 Dolby Digital, 3/2 (L,C,R,l,r) + LFE ch, 448.00 kbps | RUS
    Формат субтитров: softsub (SRT)
    Доп. информация о субтитрах: отключаемые

    MediaInfo

    General
    Unique ID : 206220542665603737885968344259528694672 (0x9B24A1BF65CFE0E3BE32E50D33D31B90)
    Complete name : F:\Фильмы\Игра Эндера 1.46\Igra.Endera.2013.RUS.BDRip.x264.mkv
    Format : Matroska
    Format version : Version 4 / Version 2
    File size : 1.46 GiB
    Duration : 1h 53mn
    Overall bit rate : 1 835 Kbps
    Movie name : Ender's Game
    Encoded date : UTC 2014-04-16 17:03:42
    Writing application : mkvmerge v5.9.0 ('On The Loose') built on Dec 15 2012 16:39:58
    Writing library : libebml v1.3.0 + libmatroska v1.4.0
    Video
    ID : 1
    Format : AVC
    Format/Info : Advanced Video Codec
    Format profile : High@L4.1
    Format settings, CABAC : Yes
    Format settings, ReFrames : 10 frames
    Codec ID : V_MPEG4/ISO/AVC
    Duration : 1h 53mn
    Bit rate : 1 385 Kbps
    Width : 1 032 pixels
    Height : 430 pixels
    Display aspect ratio : 2.40:1
    Frame rate mode : Constant
    Frame rate : 23.976 fps
    Color space : YUV
    Chroma subsampling : 4:2:0
    Bit depth : 8 bits
    Scan type : Progressive
    Bits/(Pixel*Frame) : 0.130
    Stream size : 1.07 GiB (74%)
    Title : Ender's Game
    Writing library : x264 core 130 r2273 b3065e6
    Encoding settings : cabac=1 / ref=10 / deblock=1:-2:-2 / analyse=0x3:0x133 / me=umh / subme=11 / psy=1 / psy_rd=1.01:0.00 / mixed_ref=1 / me_range=32 / chroma_me=1 / trellis=2 / 8x8dct=1 / cqm=0 / deadzone=21,11 / fast_pskip=0 / chroma_qp_offset=-2 / threads=6 / lookahead_threads=1 / sliced_threads=0 / nr=0 / decimate=0 / interlaced=0 / bluray_compat=0 / constrained_intra=0 / bframes=11 / b_pyramid=2 / b_adapt=2 / b_bias=0 / direct=3 / weightb=1 / open_gop=0 / weightp=2 / keyint=250 / keyint_min=23 / scenecut=40 / intra_refresh=0 / rc_lookahead=60 / rc=2pass / mbtree=0 / bitrate=1385 / ratetol=1.0 / qcomp=0.70 / qpmin=0 / qpmax=69 / qpstep=4 / cplxblur=20.0 / qblur=0.5 / vbv_maxrate=20000 / vbv_bufsize=20000 / nal_hrd=none / ip_ratio=1.40 / pb_ratio=1.25 / aq=1:0.80
    Language : English
    Default : Yes
    Forced : No
    Audio
    ID : 2
    Format : AC-3
    Format/Info : Audio Coding 3
    Mode extension : CM (complete main)
    Format settings, Endianness : Big
    Codec ID : A_AC3
    Duration : 1h 53mn
    Bit rate mode : Constant
    Bit rate : 448 Kbps
    Channel(s) : 6 channels
    Channel positions : Front: L C R, Side: L R, LFE
    Sampling rate : 48.0 KHz
    Bit depth : 16 bits
    Compression mode : Lossy
    Stream size : 365 MiB (24%)
    Title : AVO | DD 5.1 @ 448 kbps - Гаврилов
    Language : Russian
    Default : Yes
    Forced : Yes
    Text #1
    ID : 3
    Format : UTF-8
    Codec ID : S_TEXT/UTF8
    Codec ID/Info : UTF-8 Plain Text
    Language : Russian
    Default : No
    Forced : No
    Text #2
    ID : 4
    Format : UTF-8
    Codec ID : S_TEXT/UTF8
    Codec ID/Info : UTF-8 Plain Text
    Title : Full
    Language : English
    Default : No
    Forced : No
    Text #3
    ID : 5
    Format : UTF-8
    Codec ID : S_TEXT/UTF8
    Codec ID/Info : UTF-8 Plain Text
    Title : SDH
    Language : English
    Default : No
    Forced : No
    Text #4
    ID : 6
    Format : UTF-8
    Codec ID : S_TEXT/UTF8
    Codec ID/Info : UTF-8 Plain Text
    Title : SDH-Colored
    Language : English
    Default : No
    Forced : No
    Menu
    00:00:00.000 : en:00:00:00.000
    00:06:10.579 : en:00:06:10.579
    00:14:18.566 : en:00:14:18.566
    00:19:06.145 : en:00:19:06.145
    00:28:07.144 : en:00:28:07.144
    00:33:22.667 : en:00:33:22.667
    00:39:34.664 : en:00:39:34.664
    00:45:43.407 : en:00:45:43.407
    00:53:37.714 : en:00:53:37.714
    01:02:15.607 : en:01:02:15.607
    01:09:21.949 : en:01:09:21.949
    01:15:16.887 : en:01:15:16.887
    01:23:38.305 : en:01:23:38.305
    01:30:54.824 : en:01:30:54.824
    01:35:43.279 : en:01:35:43.279
    01:41:12.858 : en:01:41:12.858

    Скриншот c названием фильма

    Скриншоты

    Скачать .torrent

    Скачать торрент-файл бесплатно и на максимальной скорости!

    Как скачивать? · Что такое торрент? · Рейтинг и ограничения

    !ВНИМАНИЕ!
    Сайт не распространяет и не хранит электронные версии произведений, а занимается лишь лишь предоставлением доступа к создаваемому пользователями каталогу ссылок на торрент-файлы, которые содержат только списки хеш-сумм, убедительная просьба с жалобами обращаться напрямую к пользователю. Файлы для обмена на трекере предоставлены пользователями сайта, и администрация не несёт ответственности за их содержание. Просьба не заливать файлы, защищенные авторскими правами, а также файлы нелегального содержания!

    [Профиль] [ЛС]
    Показать сообщения:    
    Ответить на тему

    Текущее время: Сегодня, в 08:18

    Часовой пояс: GMT + 2



    Вы не можете начинать темы
    Вы не можете отвечать на сообщения
    Вы не можете редактировать свои сообщения
    Вы не можете удалять свои сообщения
    Вы не можете голосовать в опросах
    Вы не можете прикреплять файлы к сообщениям
    Вы не можете скачивать файлы