BitTorrentTracker PerecTracker.org
BitTorrentTracker PerecTracker.org
    
Регистрация  ·  Вход
 
 · 
Забыли пароль?

  • Мерзлая земля / The Frozen Ground (Скотт Уокер / Scott Walker) [2013, США, триллер, криминал, биография, история, HDRip] Dub

    Ответить на тему
     
    Автор Сообщение

    Columb

    Создавать темы 28-Апр-2014 10:46

           

    [Цитировать]

    Мерзлая земля / The Frozen Ground-Страна: США
    Жанр: триллер, криминал, биография, история
    Год выпуска: 2013
    Продолжительность: 01:45:34
    Перевод: Профессиональный (дублированный)
    Cубтитры: нет-Режиссер: Скотт Уокер / Scott Walker
    В ролях: Николас Кейдж (Jack Halcombe), Джон Кьюсак (Robert Hansen), Ванесса Энн Хадженс (Cindy Paulson), Дин Норрис (Sgt. Lyle Haugsven), Ольга Валентина (Jodi Brandon), Майкл МакГрэйди (Vice Det. John Gentile), Брэд Уильям Хенке (Carl Galenski), Рада Митчелл (Allie Halcombe), Фифти Сент (Pimp Clate Johnson), Кэтрин ЛаНаса (Fran Hansen), Кевин Данн (Lt. Bob Jent).
    Описание: Работники полиции обнаруживают труп молодой девушки. На месте преступления они также находят гильзу, которая становится единственной зацепкой для поисков убийцы. Расследование этого преступления поручают опытному детективу Джеку Хэлкомбу. Через некоторое время следователь устанавливает связь этого преступления с исчезновением восьми молодых девушек. Главным подозреваемым по этому делу становится Роберт Хансен — владелец пекарни, примерный семьянин и любитель охоты. Все улики указывают на то, что именно этот человек является убийцей, однако оснований для его задержания оказывается недостаточно. Джек уверен, что Роберт виновен, и он собирается сделать все возможное, чтобы доказать это...-Качество видео: HDRip (источник: BDRip / 720p)
    Формат видео: AVI | Sample
    Видео: 688x288 (2.40:1), 23.976 fps, XviD build 73 ~851 kbps avg, 0.18 bit/pixel
    Аудио: 48 kHz, MPEG Layer 3, 2 ch, ~128.00 kbps avg

    Скриншоты

    Медиаинфо

    Общее
    Формат : AVI
    Формат/Информация : Audio Video Interleave
    Размер файла : 746 Мбайт
    Продолжительность : 1 ч. 45 м.
    Общий поток : 987 Кбит/сек
    Программа кодирования : VirtualDubModRus 1.5.10.2 (build 2542/release)
    Библиотека кодирования : VirtualDubMod build 2542/release
    Видео
    Идентификатор : 0
    Формат : MPEG-4 Visual
    Профиль формата : Advanced Simple@L5
    Параметр BVOP формата : 1
    Параметр QPel формата : Нет
    Параметр GMC формата : Без точки перехода
    Параметр матрицы формата : Выборочная
    Идентификатор кодека : XVID
    Идентификатор кодека/Подсказка : XviD
    Продолжительность : 1 ч. 45 м.
    Битрейт : 851 Кбит/сек
    Ширина : 688 пикселей
    Высота : 288 пикселей
    Соотношение сторон : 2,40:1
    Частота кадров : 23,976 кадра/сек
    Цветовое пространство : YUV
    Субдискретизация насыщенности : 4:2:0
    Битовая глубина : 8 бит
    Тип развёртки : Прогрессивная
    Метод сжатия : С потерями
    Бит/(Пиксели*Кадры) : 0.179
    Размер потока : 642 Мбайт (86%)
    Библиотека кодирования : XviD 73
    Аудио
    Идентификатор : 1
    Формат : MPEG Audio
    Версия формата : Version 1
    Профиль формата : Layer 3
    Идентификатор кодека : 55
    Идентификатор кодека/Подсказка : MP3
    Продолжительность : 1 ч. 45 м.
    Вид битрейта : Постоянный
    Битрейт : 128 Кбит/сек
    Каналы : 2 канала
    Частота : 48,0 КГц
    Метод сжатия : С потерями
    Размер потока : 96,2 Мбайт (13%)
    Выравнивание : Соединение по промежуткам
    Продолжительность промежутка : 42 мс. (1,00 видеокадр)
    Время предзагрузки промежутка : 504 мс.
    Библиотека кодирования : LAME3.99r
    Настройки программы : -m s -V 4 -q 2 -lowpass 17 -b 128
    Скачать .torrent

    Скачать торрент-файл бесплатно и на максимальной скорости!

    Как скачивать? · Что такое торрент? · Рейтинг и ограничения

    !ВНИМАНИЕ!
    Сайт не распространяет и не хранит электронные версии произведений, а занимается лишь лишь предоставлением доступа к создаваемому пользователями каталогу ссылок на торрент-файлы, которые содержат только списки хеш-сумм, убедительная просьба с жалобами обращаться напрямую к пользователю. Файлы для обмена на трекере предоставлены пользователями сайта, и администрация не несёт ответственности за их содержание. Просьба не заливать файлы, защищенные авторскими правами, а также файлы нелегального содержания!

    [Профиль] [ЛС]
    Показать сообщения:    
    Ответить на тему

    Текущее время: Сегодня, в 21:51

    Часовой пояс: GMT + 2



    Вы не можете начинать темы
    Вы не можете отвечать на сообщения
    Вы не можете редактировать свои сообщения
    Вы не можете удалять свои сообщения
    Вы не можете голосовать в опросах
    Вы не можете прикреплять файлы к сообщениям
    Вы не можете скачивать файлы