BitTorrentTracker PerecTracker.org
BitTorrentTracker PerecTracker.org
    
Регистрация  ·  Вход
 
 · 
Забыли пароль?

  • Хранитель времени в 3Д / Hugo 3D (Мартин Скорсезе / Martin Scorsese) [2011, драма, детектив, приключения, семейный, BDRip-AVC] [Лицензия] Half OverUnder / Вертикальная анаморфная стереопара

    Ответить на тему
     
    Автор Сообщение

    rechyn

    Создавать темы 25-Апр-2014 13:14

           

    [Цитировать]

    Хранитель времени 3D / Hugo 3D-Год выпуска: 2011
    Страна: США
    Жанр: драма, детектив, приключения, семейный
    Продолжительность: 02:06:21
    Перевод: Профессиональный (дублированный) [Лицензия]
    Русские субтитры: нет
    Режиссер на русском: Мартин Скорсезе
    Режиссер на английском: Martin Scorsese
    Продюссер: Джонни Депп, Тим Хэдингтон, Грэм Кинг
    Сценарий: Джон Логан, Брайан Селзник
    В ролях (дублировали):
    Хьюго Габрет -Аса Баттерфилд ( Никита Сологалов)
    Жорж Мельес-Бен Кингсли (Никита Прозоровский)
    станц.инспектор- Саша Барон Коэн (Александр Гаврилин)
    Изабелль- Хлоя Грейс Морец (Любовь Германова)
    дядя Клод- Рэй Уинстон (Александр Новиков)
    господин Лэбисс- Кристофер Ли (Борис Быстров)
    Описание:
    Действие разворачивается во Франции начала 30-х.
    Главный герой, мальчик-сирота Хьюго, проживающий в стенах парижского вокзала
    со своим дядей-алкоголиком, случайно находит таинственный механизм, созданный
    знаменитым фильммейкером Жоржем Мелье. Эта находка запускает цепную реакцию
    удивительных событий, которые в конечном итоге помогут Хьюго разгадать тайну его покойного отца.--Бюджет: $ 170 000 000
    Сборы в США: $ 67 287 363
    Премьера в Мире: 10 октября 2011
    Сборы в Мире: + $ 39 700 000 = $ 106 987 363
    Премьера в РФ: 5 января 2012, , «Централ Партнершип» 3D
    Сборы в РФ: $ 5 892 530
    Релиз на DVD: 17 мая 2012, «Новый Диск»
    Pелиз на Blu Ray: 17 мая 2012, «Новый Диск»
    PG - Рекомендуется присутствие родителей
    --Дополнительная информация: Украинская и французская звуковые дорожки отдельными файлами
    Качество: BDRip
    Контейнер: MKV
    Формат 3D: Half OverUnder / Вертикальная анаморфная стереопара
    Порядок ракурсов: левый ракурс первый
    Видео кодек: h.264
    Аудио кодек: AC3
    Видео: AVC / 1920х1080p / 23,976 fps / 7.8Mbps
    Аудио 1: Русский / AC3 / 48 KHz / 5.1 ch / 448 Kbps (Лицензия)
    Аудио 2: Английский / AC3 / 48 KHz / 5.1 ch / 640 Kbps (оригинал)
    Аудио 3: Украинский / AC3 / 48 KHz / 2.0 ch / 448 Kbps (отдельно)
    Аудио 4: Французский / AC3 / 48 KHz / 5.1 ch / 640 Kbps (отдельно)

    MediaInfo

    Общее
    Уникальный идентификатор : 227207344111990116624173088480622662621 (0xAAEE8AF2627E87CA983177087479D3DD)
    Полное имя : E:\кино\HUGO(3D)2011.halfOU(marik)mkv\Hugo (3D).mkv
    Формат : Matroska
    Версия формата : Version 2
    Размер файла : 8,03 Гбайт
    Продолжительность : 2 ч. 6 м.
    Общий поток : 9103 Кбит/сек
    Название фильма : Hugo (3D).1080p.mkv
    Дата кодирования : UTC 2012-02-25 14:33:11
    Программа кодирования : mkvmerge v3.4.0 ('Rapunzel') сборка от May 15 2010 09:38:20
    Библиотека кодирования : libebml v0.8.0 + libmatroska v0.9.0
    Видео
    Идентификатор : 1
    Формат : AVC
    Формат/Информация : Advanced Video Codec
    Профиль формата : High@L4.1
    Параметр CABAC формата : Да
    Параметр ReFrames формата : 4 кадра
    Идентификатор кодека : V_MPEG4/ISO/AVC
    Продолжительность : 2 ч. 6 м.
    Битрейт : 7834 Кбит/сек
    Ширина : 1920 пикселей
    Высота : 1080 пикселей
    Соотношение сторон : 16:9
    Частота кадров : 23,976 кадра/сек
    Цветовое пространство : YUV
    Субдискретизация насыщенности : 4:2:0
    Битовая глубина : 8 бит
    Тип развёртки : Прогрессивная
    Бит/(Пиксели*Кадры) : 0.158
    Размер потока : 6,91 Гбайт (86%)
    Заголовок : Hugo.film.mkv
    Библиотека кодирования : x264 core 120 r2164 da19765
    Настройки программы : cabac=1 / ref=4 / deblock=1:-2:-2 / analyse=0x3:0x113 / me=umh / subme=7 / psy=1 / psy_rd=1.00:0.15 / mixed_ref=1 / me_range=16 / chroma_me=1 / trellis=2 / 8x8dct=1 / cqm=0 / deadzone=21,11 / fast_pskip=1 / chroma_qp_offset=-3 / threads=6 / sliced_threads=0 / nr=0 / decimate=1 / interlaced=0 / bluray_compat=0 / constrained_intra=0 / bframes=6 / b_pyramid=0 / b_adapt=2 / b_bias=0 / direct=3 / weightb=1 / open_gop=0 / weightp=2 / keyint=250 / keyint_min=23 / scenecut=40 / intra_refresh=0 / rc_lookahead=40 / rc=crf / mbtree=1 / crf=18.0 / qcomp=0.60 / qpmin=10 / qpmax=69 / qpstep=4 / ip_ratio=1.40 / aq=1:1.00
    Default : Да
    Forced : Нет
    Аудио #1
    Идентификатор : 2
    Формат : AC-3
    Формат/Информация : Audio Coding 3
    Расширение режима : CM (complete main)
    Идентификатор кодека : A_AC3
    Продолжительность : 2 ч. 6 м.
    Вид битрейта : Постоянный
    Битрейт : 448 Кбит/сек
    Каналы : 6 каналов
    Расположение каналов : Front: L C R, Side: L R, LFE
    Частота : 48,0 КГц
    Битовая глубина : 16 бит
    Метод сжатия : С потерями
    Размер потока : 405 Мбайт (5%)
    Заголовок : audio.rus
    Язык : Russian
    Default : Да
    Forced : Нет
    Аудио #2
    Идентификатор : 3
    Формат : AC-3
    Формат/Информация : Audio Coding 3
    Расширение режима : CM (complete main)
    Идентификатор кодека : A_AC3
    Продолжительность : 2 ч. 6 м.
    Вид битрейта : Постоянный
    Битрейт : 640 Кбит/сек
    Каналы : 6 каналов
    Расположение каналов : Front: L C R, Side: L R, LFE
    Частота : 48,0 КГц
    Битовая глубина : 16 бит
    Метод сжатия : С потерями
    Размер потока : 578 Мбайт (7%)
    Заголовок : audio.eng
    Язык : English
    Default : Нет
    Forced : Нет
    Меню
    00:00:00.000 : :00:00:00.000
    00:09:35.533 : :00:09:35.533
    00:17:20.665 : :00:17:20.665
    00:23:32.911 : :00:23:32.911
    00:30:34.541 : :00:30:34.541
    00:38:26.262 : :00:38:26.262
    00:47:36.270 : :00:47:36.270
    00:55:37.543 : :00:55:37.543
    01:03:43.695 : :01:03:43.695
    01:12:46.862 : :01:12:46.862
    01:19:59.169 : :01:19:59.169
    01:27:10.100 : :01:27:10.100
    01:33:03.495 : :01:33:03.495
    01:42:41.280 : :01:42:41.280
    01:53:47.779 : :01:53:47.779
    01:59:58.441 : :01:59:58.441

    Скриншоты

    Скачать .torrent

    Скачать торрент-файл бесплатно и на максимальной скорости!

    Как скачивать? · Что такое торрент? · Рейтинг и ограничения

    !ВНИМАНИЕ!
    Сайт не распространяет и не хранит электронные версии произведений, а занимается лишь лишь предоставлением доступа к создаваемому пользователями каталогу ссылок на торрент-файлы, которые содержат только списки хеш-сумм, убедительная просьба с жалобами обращаться напрямую к пользователю. Файлы для обмена на трекере предоставлены пользователями сайта, и администрация не несёт ответственности за их содержание. Просьба не заливать файлы, защищенные авторскими правами, а также файлы нелегального содержания!


    _________________
    [Профиль] [ЛС]
    Показать сообщения:    
    Ответить на тему

    Текущее время: Сегодня, в 14:39

    Часовой пояс: GMT + 2



    Вы не можете начинать темы
    Вы не можете отвечать на сообщения
    Вы не можете редактировать свои сообщения
    Вы не можете удалять свои сообщения
    Вы не можете голосовать в опросах
    Вы не можете прикреплять файлы к сообщениям
    Вы не можете скачивать файлы