Register  ·  Log in
Forgot password?

  • Волк / Wolf (Джим Тайхутту / Jim Taihuttu) [2013, Нидерланды, триллер, HDRip] VO (Yahn X.)

    Reply to topic
    Author Message


    Post 24-Apr-2014 10:51



    Волк / Wolf
    Страна: Нидерланды
    Жанр: триллер
    Год выпуска: 2013
    Продолжительность: 02:02:38
    Перевод: Одноголосый закадровый Yahn X.
    Cубтитры: нет
    Режиссер: Джим Тайхутту / Jim Taihuttu
    В ролях: Стеф Кёйперс, Слиман Дази, Якоб Дервиг, Марван Кензари, Бо Маертен, Бьорн Ниссен
    Описание: Маджид является талантливым кикбоксером. Его боевая доблесть приносит ему известность как на ринге, так и вне его. Но постепенно граница между кикбоксингом и преступной деятельностью начинает размываться, и Маджид перестает понимать, чего же он хочет на самом деле…
    Качество видео: HDRip
    Формат видео: AVI
    Видео: XviD, 1566 Кбит/с, 720x384, 24,000 кадра/сек
    Аудио: MP3, 2 ch, 128 Кбит/с, 48,0 КГц


    Complete name : I:\Волк\Volk.2013.HDRip.avi
    Format : AVI
    Format/Info : Audio Video Interleave
    File size : 1.46 GiB
    Duration : 2h 2mn
    Overall bit rate : 1 704 Kbps
    Writing application : VirtualDubMod (build 2540/release)
    Writing library : VirtualDubMod build 2540/release
    Video #0
    ID : 0
    Format : MPEG-4 Visual
    Format profile : Advanced Simple@L5
    Format settings, BVOP : 2
    Format settings, QPel : No
    Format settings, GMC : No warppoints
    Format settings, Matrix : Default (MPEG)
    Codec ID : XVID
    Codec ID/Hint : XviD
    Duration : 2h 2mn
    Bit rate : 1 566 Kbps
    Width : 720 pixels
    Height : 384 pixels
    Display aspect ratio : 1.85:1
    Frame rate : 24.000 fps
    Color space : YUV
    Chroma subsampling : 4:2:0
    Bit depth : 8 bits
    Scan type : Progressive
    Compression mode : Lossy
    Bits/(Pixel*Frame) : 0.236
    Stream size : 1.34 GiB (92%)
    Writing library : XviD 1.2.1 (UTC 2008-12-04)
    Audio #1
    ID : 1
    Format : MPEG Audio
    Format version : Version 1
    Format profile : Layer 3
    Mode : Joint stereo
    Mode extension : MS Stereo
    Codec ID : 55
    Codec ID/Hint : MP3
    Duration : 2h 2mn
    Bit rate mode : Constant
    Bit rate : 128 Kbps
    Channel count : 2 channels
    Sampling rate : 48.0 KHz
    Compression mode : Lossy
    Stream size : 112 MiB (8%)
    Alignment : Aligned on interleaves
    Interleave, duration : 42 ms (1.00 video frame)
    Interleave, preload duration : 504 ms

    Скриншот c названием фильма


    Download .torrent

    Download free and at maximum speed!

    How to Download? · What is a torrent? · Ratings and Limitations

    The site does not extend and does not store electronic(digital) versions of products, and only gives access to a reference catalogue created by users on torrent-files which contain only lists of the hash-sums, the earnest entreaty, with complaints(abuse) to access directly to the user. Files for an exchange on tracker are given by users of a site, and the administration does not bear the responsibility for their maintenance. The request to not fill in the files protected by copyrights, and also files of the illegal maintenance!

    [Profile] [PM]
    Display posts from previous:    
    Reply to topic

    The time now is: Today 16:36

    All times are GMT + 3 Hours

    You cannot post new topics in this forum
    You cannot reply to topics in this forum
    You cannot edit your posts in this forum
    You cannot delete your posts in this forum
    You cannot vote in polls in this forum
    You cannot attach files in this forum
    You cannot download files in this forum