BitTorrentTracker PerecTracker.org
BitTorrentTracker PerecTracker.org
    
Регистрация  ·  Вход
 
 · 
Забыли пароль?

  • Волк / Wolf (Джим Тайхутту / Jim Taihuttu) [2013, Нидерланды, триллер, HDRip] VO (Yahn X.)

    Ответить на тему
     
    Автор Сообщение

    Columb

    Создавать темы 24-Апр-2014 09:51

           

    [Цитировать]

    Волк / Wolf
    Страна: Нидерланды
    Жанр: триллер
    Год выпуска: 2013
    Продолжительность: 02:02:38
    Перевод: Одноголосый закадровый Yahn X.
    Cубтитры: нет
    Режиссер: Джим Тайхутту / Jim Taihuttu
    В ролях: Стеф Кёйперс, Слиман Дази, Якоб Дервиг, Марван Кензари, Бо Маертен, Бьорн Ниссен
    Описание: Маджид является талантливым кикбоксером. Его боевая доблесть приносит ему известность как на ринге, так и вне его. Но постепенно граница между кикбоксингом и преступной деятельностью начинает размываться, и Маджид перестает понимать, чего же он хочет на самом деле…
    Сэмпл: http://multi-up.com/968427
    Качество видео: HDRip
    Формат видео: AVI
    Видео: XviD, 1566 Кбит/с, 720x384, 24,000 кадра/сек
    Аудио: MP3, 2 ch, 128 Кбит/с, 48,0 КГц

    MediaInfo

    I:\Волк\Volk.2013.HDRip.avi
    General
    Complete name : I:\Волк\Volk.2013.HDRip.avi
    Format : AVI
    Format/Info : Audio Video Interleave
    File size : 1.46 GiB
    Duration : 2h 2mn
    Overall bit rate : 1 704 Kbps
    Writing application : VirtualDubMod 1.5.10.2 (build 2540/release)
    Writing library : VirtualDubMod build 2540/release
    Video #0
    ID : 0
    Format : MPEG-4 Visual
    Format profile : Advanced Simple@L5
    Format settings, BVOP : 2
    Format settings, QPel : No
    Format settings, GMC : No warppoints
    Format settings, Matrix : Default (MPEG)
    Codec ID : XVID
    Codec ID/Hint : XviD
    Duration : 2h 2mn
    Bit rate : 1 566 Kbps
    Width : 720 pixels
    Height : 384 pixels
    Display aspect ratio : 1.85:1
    Frame rate : 24.000 fps
    Color space : YUV
    Chroma subsampling : 4:2:0
    Bit depth : 8 bits
    Scan type : Progressive
    Compression mode : Lossy
    Bits/(Pixel*Frame) : 0.236
    Stream size : 1.34 GiB (92%)
    Writing library : XviD 1.2.1 (UTC 2008-12-04)
    Audio #1
    ID : 1
    Format : MPEG Audio
    Format version : Version 1
    Format profile : Layer 3
    Mode : Joint stereo
    Mode extension : MS Stereo
    Codec ID : 55
    Codec ID/Hint : MP3
    Duration : 2h 2mn
    Bit rate mode : Constant
    Bit rate : 128 Kbps
    Channel count : 2 channels
    Sampling rate : 48.0 KHz
    Compression mode : Lossy
    Stream size : 112 MiB (8%)
    Alignment : Aligned on interleaves
    Interleave, duration : 42 ms (1.00 video frame)
    Interleave, preload duration : 504 ms

    Скриншот c названием фильма

    Скриншоты

    Скачать .torrent

    Скачать торрент-файл бесплатно и на максимальной скорости!

    Как скачивать? · Что такое торрент? · Рейтинг и ограничения

    !ВНИМАНИЕ!
    Сайт не распространяет и не хранит электронные версии произведений, а занимается лишь лишь предоставлением доступа к создаваемому пользователями каталогу ссылок на торрент-файлы, которые содержат только списки хеш-сумм, убедительная просьба с жалобами обращаться напрямую к пользователю. Файлы для обмена на трекере предоставлены пользователями сайта, и администрация не несёт ответственности за их содержание. Просьба не заливать файлы, защищенные авторскими правами, а также файлы нелегального содержания!

    [Профиль] [ЛС]
    Показать сообщения:    
    Ответить на тему

    Текущее время: Сегодня, в 06:05

    Часовой пояс: GMT + 2



    Вы не можете начинать темы
    Вы не можете отвечать на сообщения
    Вы не можете редактировать свои сообщения
    Вы не можете удалять свои сообщения
    Вы не можете голосовать в опросах
    Вы не можете прикреплять файлы к сообщениям
    Вы не можете скачивать файлы