Register  ·  Log in
Forgot password?

  • Стокгольмская восточная / Stockholm East / Stockholm Östra (Симон Кайзер / Simon Kaijser) [2011, Швеция, драма, HDRip] VO (Kenum)

    Reply to topic
    Author Message


    Post 24-Apr-2014 10:48



    Стокгольмская восточная / Stockholm East / Stockholm Östra
    Страна: Швеция
    Жанр: драма
    Год выпуска: 2011
    Продолжительность: 01:31:24
    Перевод: Одноголосый закадровый | Kenum
    Cубтитры: нет
    Оригинальная аудиодорожка: нет
    Режиссер: Симон Кайзер / Simon Kaijser
    В ролях: Микаэл Персбрандт, Ибен Хьейле, Хенрик Норлен, Лив Мяёнес, Ларс-Эрик Беренетт, Анки Лиден, Анника Халлин, Джимми Линдстрём, Ульф Фриберг, Ребека Инглунд
    Описание: Трогательная история непреодолимой любви между двумя незнакомцами, связанных между собой одной трагедией, которая сказывается на их жизнях и отношениях. Когда Йохан и Анна встречаются на вокзале, связывающим столицу Стокгольм с идиллическим пригородом, где они и живут, они отправляются в опасное путешествие из страсти и лжи…

    Качество видео: HDRip
    Формат видео: AVI
    Видео: XviD 73, 624x336 (1.85:1), 25.000 fps, 1000 Kbps
    Аудио: MP3, 48.0 kHz, 128 Kbps, 2 ch, CBR
    Релиз от: Scarabey


    Complete name                            : Stockholm.East.2011.L1.HDRip.avi
    Format                                   : AVI
    Format/Info                              : Audio Video Interleave
    File size                                : 744 MiB
    Duration                                 : 1h 31mn
    Overall bit rate                         : 1 137 Kbps
    Writing application                      : VirtualDubMod | || (build 2550/release)
    Writing library                          : VirtualDubMod build 2550/release
    ID                                       : 0
    Format                                   : MPEG-4 Visual
    Format profile                           : Advanced Simple@L5
    Format settings, BVOP                    : 1
    Format settings, QPel                    : No
    Format settings, GMC                     : No warppoints
    Format settings, Matrix                  : Custom
    Codec ID                                 : XVID
    Codec ID/Hint                            : XviD
    Duration                                 : 1h 31mn
    Bit rate                                 : 1 000 Kbps
    Width                                    : 624 pixels
    Height                                   : 336 pixels
    Display aspect ratio                     : 1.85:1
    Frame rate                               : 25.000 fps
    Color space                              : YUV
    Chroma subsampling                       : 4:2:0
    Bit depth                                : 8 bits
    Scan type                                : Progressive
    Compression mode                         : Lossy
    Bits/(Pixel*Frame)                       : 0.191
    Stream size                              : 654 MiB (88%)
    Writing library                          : XviD 73
    ID                                       : 1
    Format                                   : MPEG Audio
    Format version                           : Version 1
    Format profile                           : Layer 3
    Codec ID                                 : 55
    Codec ID/Hint                            : MP3
    Duration                                 : 1h 31mn
    Bit rate mode                            : Constant
    Bit rate                                 : 128 Kbps
    Channel(s)                               : 2 channels
    Sampling rate                            : 48.0 KHz
    Compression mode                         : Lossy
    Stream size                              : 83.7 MiB (11%)
    Alignment                                : Aligned on interleaves
    Interleave, duration                     : 40 ms (1.00 video frame)
    Interleave, preload duration             : 504 ms
    Writing library                          : LAME3.99r
    Encoding settings                        : -m s -V 4 -q 2 -lowpass 17 -b 128

    Скриншот c названием фильма


    Download .torrent

    Download free and at maximum speed!

    How to Download? · What is a torrent? · Ratings and Limitations

    The site does not extend and does not store electronic(digital) versions of products, and only gives access to a reference catalogue created by users on torrent-files which contain only lists of the hash-sums, the earnest entreaty, with complaints(abuse) to access directly to the user. Files for an exchange on tracker are given by users of a site, and the administration does not bear the responsibility for their maintenance. The request to not fill in the files protected by copyrights, and also files of the illegal maintenance!

    [Profile] [PM]
    Display posts from previous:    
    Reply to topic

    The time now is: Today 19:24

    All times are GMT + 3 Hours

    You cannot post new topics in this forum
    You cannot reply to topics in this forum
    You cannot edit your posts in this forum
    You cannot delete your posts in this forum
    You cannot vote in polls in this forum
    You cannot attach files in this forum
    You cannot download files in this forum